<?xml version="1.0" standalone="no"?>
<!DOCTYPE svg PUBLIC "-//W3C//DTD SVG 1.1//EN" "http://www.w3.org/Graphics/SVG/1.1/DTD/svg11.dtd" >
<svg xmlns="http://www.w3.org/2000/svg" xmlns:xlink="http://www.w3.org/1999/xlink" version="1.1">
<metadata>
Created by FontForge 20170731 at Tue Apr 18 07:59:37 2023
 By Aleksey,,,
Copyright (c) 1991, 2002 Adobe Systems Incorporated.  All Rights Reserved. (c) 1981, 2002 Heidelberger Druckmaschinen AG. All rights reserved.
</metadata>
<defs>
<font id="VectoraLTStd-Bold" horiz-adv-x="1212" >
  <font-face 
    font-family="Vectora LT Std Light"
    font-weight="700"
    font-stretch="normal"
    units-per-em="2048"
    panose-1="2 11 7 6 3 5 3 2 2 4"
    ascent="1591"
    descent="-457"
    x-height="1225"
    cap-height="1458"
    bbox="-305 -512 2195 1970"
    underline-thickness="102"
    underline-position="-307"
    unicode-range="U+0020-FB02"
  />
<missing-glyph horiz-adv-x="1024" 
d="M0 0v1434h1024v-1434h-1024zM512 809l348 522h-696zM573 717l349 -522v1044zM164 102h696l-348 523zM102 1239v-1044l349 522z" />
    <glyph glyph-name="fi" unicode="fi" horiz-adv-x="1327" 
d="M895 0v1225h295v-1225h-295zM895 1372v219h295v-219h-295zM203 0v915h-176v209h176v111q0 403 415 403q90 0 177 -22v-209q-59 23 -144 23q-153 0 -153 -205v-101h241v-209h-241v-915h-295z" />
    <glyph glyph-name="fl" unicode="fl" horiz-adv-x="1327" 
d="M895 0v1591h295v-1591h-295zM203 0v915h-176v209h176v111q0 403 415 403q90 0 177 -22v-209q-59 23 -144 23q-153 0 -153 -205v-101h241v-209h-241v-915h-295z" />
    <glyph glyph-name=".notdef" horiz-adv-x="1024" 
d="M0 0v1434h1024v-1434h-1024zM512 809l348 522h-696zM573 717l349 -522v1044zM164 102h696l-348 523zM102 1239v-1044l349 522z" />
    <glyph glyph-name=".null" horiz-adv-x="0" 
 />
    <glyph glyph-name="nonmarkingreturn" horiz-adv-x="682" 
 />
    <glyph glyph-name="space" unicode=" " horiz-adv-x="606" 
 />
    <glyph glyph-name="exclam" unicode="!" horiz-adv-x="679" 
d="M229 461l-36 997h294l-36 -997h-222zM209 0v270h262v-270h-262z" />
    <glyph glyph-name="quotedbl" unicode="&#x22;" horiz-adv-x="681" 
d="M418 1073v518h209v-518h-209zM55 1073v518h209v-518h-209z" />
    <glyph glyph-name="numbersign" unicode="#" 
d="M616 0l60 432h-221l-58 -432h-172l60 432h-191v156h213l37 282h-190v156h213l59 432h170l-59 -432h221l57 432h172l-59 -432h190v-156h-213l-37 -282h191v-156h-213l-60 -432h-170zM696 588l39 282h-219l-39 -282h219z" />
    <glyph glyph-name="dollar" unicode="$" 
d="M553 -178v143q-99 2 -181 29t-132.5 64.5t-88 85.5t-54.5 84.5t-25 70.5l258 78q14 -89 75.5 -135t147.5 -60v445q-61 12 -116.5 31t-117 55t-106 82t-73.5 116.5t-29 155.5q0 76 30 150.5t84 136t140 100t188 39.5v143h115v-143q95 0 171.5 -22.5t123.5 -55.5t80 -77.5
t47.5 -82t19.5 -75.5l-254 -56q-19 66 -70.5 109t-117.5 43v-416q250 -60 362.5 -159t112.5 -273q0 -114 -37 -201.5t-103.5 -141.5t-150 -83.5t-184.5 -36.5v-143h-115zM553 891v385q-84 -3 -136 -53.5t-52 -132.5q0 -72 45.5 -116.5t142.5 -82.5zM668 596v-414
q95 15 152 67.5t57 133.5q0 39 -12.5 70.5t-29 51t-49 38.5t-54.5 28.5t-64 24.5z" />
    <glyph glyph-name="percent" unicode="%" horiz-adv-x="1705" 
d="M424 852q43 0 74 21t48 58t24.5 78.5t7.5 90.5q0 248 -154 248q-43 0 -74 -21t-48 -58t-24.5 -78.5t-7.5 -90.5q0 -248 154 -248zM424 707q-177 0 -263.5 107.5t-86.5 285.5q0 77 22.5 146.5t64.5 125t110.5 88.5t152.5 33q93 0 161.5 -29.5t109 -83.5t60 -124t19.5 -156
q0 -77 -22.5 -146.5t-64.5 -125t-110.5 -88.5t-152.5 -33zM1282 -35q-177 0 -263.5 107.5t-86.5 285.5q0 77 22.5 146.5t64.5 125.5t110.5 89t152.5 33q93 0 161.5 -30t109 -84t60 -124t19.5 -156q0 -77 -22.5 -146.5t-64.5 -125t-110.5 -88.5t-152.5 -33zM1282 111
q43 0 74 21t48 57.5t24.5 78t7.5 90.5q0 248 -154 248q-43 0 -74 -21t-48 -58t-24.5 -78.5t-7.5 -90.5q0 -247 154 -247zM373 -51l792 1560h162l-792 -1560h-162z" />
    <glyph glyph-name="ampersand" unicode="&#x26;" horiz-adv-x="1517" 
d="M465 1124q0 -43 22 -85.5t48 -70.5t77 -75l65 39t50.5 33t43 35t27.5 34.5t20 42.5t5 49q0 70 -47 117t-131 47q-89 0 -134.5 -47.5t-45.5 -118.5zM1147 0l-107 125q-111 -81 -197.5 -115.5t-226.5 -34.5q-112 0 -203 24t-153 64.5t-104 96.5t-61 118.5t-19 131.5
q0 52 12.5 99.5t29.5 81t46 65.5t52 51.5t58 40.5t52 29.5t47 21.5q-73 56 -132 144t-59 192q0 81 28.5 144.5t74 102.5t108 65t125 36t129.5 10q99 0 178.5 -21t129.5 -55.5t83 -80.5t46.5 -93t13.5 -96q0 -54 -14 -101.5t-42 -85t-56 -66.5t-70 -56t-68.5 -42t-65.5 -34
l285 -299q25 34 38.5 55t31 58.5t26 87t11.5 114.5h262q0 -142 -50.5 -272t-146.5 -232l252 -274h-344zM891 287l-350 360q-28 -14 -45.5 -24t-45 -31.5t-44 -43t-29 -55t-12.5 -71.5q0 -110 73 -177t183 -67q152 0 270 109z" />
    <glyph glyph-name="quotesingle" unicode="'" horiz-adv-x="454" 
d="M129 1073v518h209v-518h-209z" />
    <glyph glyph-name="parenleft" unicode="(" horiz-adv-x="645" 
d="M596 -168l-162 -104q-349 471 -352 942q3 471 352 942l162 -105q-47 -80 -75 -131.5t-67.5 -139.5t-61.5 -165t-38.5 -183t-17.5 -218q1 -112 17.5 -218t38.5 -183t61 -165t67.5 -140t75.5 -132z" />
    <glyph glyph-name="parenright" unicode=")" horiz-adv-x="645" 
d="M49 1507l162 105q349 -471 352 -942q-3 -471 -352 -942l-162 104q47 80 75.5 132t67.5 140t61 165t38.5 183t17.5 218q-1 112 -17.5 218t-38.5 183t-61.5 165t-67.5 139.5t-75 131.5z" />
    <glyph glyph-name="asterisk" unicode="*" horiz-adv-x="1024" 
d="M197 770l200 240l-305 80l55 172l295 -119l-24 315h188l-24 -315l295 119l55 -172l-305 -80l200 -240l-145 -106l-170 266l-170 -266z" />
    <glyph glyph-name="plus" unicode="+" horiz-adv-x="1228" 
d="M516 616v420h197v-420h417v-196h-417v-420h-197v420h-418v196h418z" />
    <glyph glyph-name="comma" unicode="," horiz-adv-x="606" 
d="M195 270h266l-185 -518h-221z" />
    <glyph glyph-name="hyphen" unicode="-" horiz-adv-x="645" 
d="M72 717h503v-209h-503v209z" />
    <glyph glyph-name="period" unicode="." horiz-adv-x="606" 
d="M172 0v270h262v-270h-262z" />
    <glyph glyph-name="slash" unicode="/" horiz-adv-x="796" 
d="M4 0l602 1528l187 -68l-603 -1528z" />
    <glyph glyph-name="zero" unicode="0" 
d="M365 735q0 -126 10 -218t35 -171.5t74 -120.5t122 -41q59 0 102.5 28.5t70 76t42.5 120t21.5 149.5t5.5 177q0 75 -3 134t-11.5 126t-25.5 115.5t-42.5 89.5t-66 62.5t-93.5 21.5t-93 -21.5t-66 -63t-43 -89.5t-25 -115t-11 -126t-3 -134zM70 735q0 87 6.5 164t23 155
t43 142t68.5 120.5t97 94.5t130.5 60t167.5 22q127 0 223.5 -42.5t155 -112t95 -170.5t50 -204.5t13.5 -228.5q0 -123 -15 -229t-53 -206t-97.5 -170t-154 -112.5t-217.5 -42.5t-217.5 42.5t-154 112.5t-97 170t-52.5 206t-15 229z" />
    <glyph glyph-name="one" unicode="1" 
d="M614 0v1159l-319 -256l-139 172l491 383h262v-1458h-295z" />
    <glyph glyph-name="two" unicode="2" 
d="M94 0v209l420 412q44 42 73.5 72t73 82t70 96t46.5 100t20 108q0 93 -53 149t-154 56q-63 0 -109 -23.5t-70.5 -62.5t-36 -79.5t-12.5 -82.5l-270 47q32 192 163.5 301t350.5 109q217 0 345 -118t128 -292q0 -131 -58.5 -241.5t-172.5 -225.5l-410 -407h647v-209h-991z
" />
    <glyph glyph-name="three" unicode="3" 
d="M367 1098l-256 73q125 322 495 322q69 0 131.5 -10.5t124.5 -37t107.5 -67.5t73.5 -108t28 -152q0 -117 -72 -209t-219 -137v-4q320 -55 320 -367q0 -59 -15.5 -115.5t-54.5 -113.5t-97 -100t-151.5 -70t-210.5 -27q-88 0 -162 19t-124 52.5t-88 72.5t-60.5 85t-35 84.5
t-17.5 76.5l262 57q11 -108 70.5 -173t165.5 -65t164.5 69t58.5 165q0 119 -72.5 175t-200.5 56h-83v217h71q53 0 99.5 12t85 36.5t61 67.5t22.5 99q0 87 -51 145t-149 58q-32 0 -59.5 -7t-46.5 -16t-37 -27.5t-27.5 -30t-21.5 -36.5t-15.5 -34t-13.5 -35z" />
    <glyph glyph-name="four" unicode="4" 
d="M684 0v252h-618v246l591 960h301v-997h193v-209h-193v-252h-274zM684 461v401q0 118 25 309h-13q-22 -59 -100 -198l-295 -512h383z" />
    <glyph glyph-name="five" unicode="5" 
d="M1044 1458v-209h-581l-8 -317q71 26 172 26q203 0 337 -136.5t134 -354.5q0 -136 -60 -247t-177.5 -178t-272.5 -67q-207 0 -316 93t-151 297l246 51q0 -40 10.5 -78t33.5 -74t64.5 -58t97.5 -22q106 0 168 66.5t62 198.5q0 153 -85.5 227t-230.5 74q-134 0 -286 -88
l16 796h827z" />
    <glyph glyph-name="six" unicode="6" 
d="M618 1458h347l-187 -223q-204 -234 -264 -350l4 -4q89 43 184 43q126 0 221 -63.5t143 -165.5t48 -226q0 -101 -32 -189t-93 -156.5t-158.5 -108.5t-220.5 -40q-92 0 -168.5 20.5t-128.5 53.5t-91.5 79t-62.5 92.5t-37.5 98t-19 91.5t-4.5 77q0 139 58 284.5t149 266.5z
M819 453q0 115 -60.5 188.5t-174.5 73.5q-34 0 -72.5 -9.5t-61.5 -20t-24 -15.5q-45 -92 -45 -228q0 -113 56 -183t147 -75q224 0 235 269z" />
    <glyph glyph-name="seven" unicode="7" 
d="M137 0l631 1233h-664v225h969v-207l-612 -1251h-324z" />
    <glyph glyph-name="eight" unicode="8" 
d="M795 1122q0 78 -52.5 126t-132.5 48q-99 0 -151.5 -49t-52.5 -127q0 -134 215 -237q174 114 174 239zM600 659l-70 -49q-73 -54 -107 -109.5t-34 -127.5q0 -89 56.5 -145t156.5 -56q101 0 155 59.5t54 157.5q0 135 -160 238zM612 1493q210 0 333.5 -96.5t123.5 -247.5
q0 -59 -19 -112.5t-44.5 -89.5t-65 -70t-66.5 -51.5t-63 -37.5q49 -28 80 -48t76.5 -58.5t72 -77t46.5 -95t20 -120.5q0 -80 -32 -153t-92 -132t-156.5 -94t-215.5 -35q-128 0 -228 34t-158.5 91.5t-88 126t-29.5 144.5q0 42 8.5 79t20 65t37 58t44 49t57.5 47t61.5 42.5
t71.5 44.5l-41 20.5t-47.5 28t-54 38.5t-49 48t-44 61.5t-28 74t-11.5 89.5q0 122 67 209t174 127.5t240 40.5z" />
    <glyph glyph-name="nine" unicode="9" 
d="M248 0l186 223q205 245 264 361l-4 4q-89 -43 -184 -43q-126 0 -221 63t-143 165t-48 226q0 101 32 189t93 156.5t158.5 108.5t220.5 40q92 0 168.5 -20.5t128.5 -53.5t91.5 -79t62.5 -92.5t37.5 -98t19 -91.5t4.5 -77q0 -139 -58 -284.5t-149 -266.5l-313 -430h-346z
M393 1016q0 -114 61 -188t175 -74q34 0 72 9.5t61 20t24 15.5q45 92 45 227q0 113 -55.5 183t-146.5 75q-225 0 -236 -268z" />
    <glyph glyph-name="colon" unicode=":" horiz-adv-x="606" 
d="M172 954v271h262v-271h-262zM172 0v270h262v-270h-262z" />
    <glyph glyph-name="semicolon" unicode=";" horiz-adv-x="606" 
d="M195 270h266l-185 -518h-221zM172 954v271h262v-271h-262z" />
    <glyph glyph-name="less" unicode="&#x3c;" horiz-adv-x="1228" 
d="M1135 180v-196l-1041 452v164l1041 453v-197l-785 -338z" />
    <glyph glyph-name="equal" unicode="=" horiz-adv-x="1228" 
d="M1130 836v-197h-1032v197h1032zM1130 397v-196h-1032v196h1032z" />
    <glyph glyph-name="greater" unicode="&#x3e;" horiz-adv-x="1228" 
d="M94 -16v196l785 338l-785 338v197l1041 -453v-164z" />
    <glyph glyph-name="question" unicode="?" horiz-adv-x="1099" 
d="M438 461v102q0 139 82 223l109 109q63 63 86.5 114t23.5 107q0 74 -48 121t-136 47q-44 0 -79 -15t-55 -36.5t-34 -49.5t-19.5 -47.5t-7.5 -37.5l-258 53q86 342 476 342q198 0 315 -103.5t117 -269.5q0 -161 -148 -295l-88 -80q-110 -99 -110 -182v-102h-226zM420 0v270
h262v-270h-262z" />
    <glyph glyph-name="at" unicode="@" horiz-adv-x="1638" 
d="M594 651q0 -81 44.5 -133.5t117.5 -52.5q72 0 132.5 49.5t92 121t31.5 142.5q0 74 -46.5 124t-115.5 50q-71 0 -131.5 -47.5t-92.5 -116t-32 -137.5zM1272 1114l-121 -498q-23 -86 -23 -118q0 -47 41 -47q85 0 160.5 109.5t75.5 264.5q0 160 -75.5 278t-199.5 176
t-280 58q-173 0 -306.5 -80.5t-205.5 -219.5t-72 -312q0 -177 78 -315t216 -213.5t314 -75.5q129 0 244 46t197 130h160q-104 -158 -267.5 -245t-355.5 -87q-164 0 -308 58.5t-246 159.5t-161 243t-59 303q0 157 61 300t162 244t236 160.5t278 59.5q165 0 306 -49.5
t236.5 -134t149.5 -199t54 -242.5q0 -101 -27 -189.5t-71.5 -151t-99 -112.5t-112.5 -79.5t-108.5 -44.5t-89.5 -15q-48 0 -82 30.5t-37 86.5h-4q-98 -117 -238 -117q-130 0 -216.5 102.5t-86.5 244.5q0 97 32.5 190t89 166t141.5 117.5t182 44.5q159 0 239 -140l31 113h168
z" />
    <glyph glyph-name="A" unicode="A" horiz-adv-x="1478" 
d="M512 565h451l-162 459q-41 113 -58 201h-10q-17 -104 -53 -201zM4 0l549 1458h391l531 -1458h-322l-117 340h-602l-121 -340h-309z" />
    <glyph glyph-name="B" unicode="B" horiz-adv-x="1327" 
d="M444 225h269q95 0 160 48t65 153q0 209 -217 209h-277v-410zM150 0v1458h593q121 0 211 -29t142.5 -81t78 -116.5t25.5 -141.5q0 -119 -66 -211.5t-198 -118.5v-4q56 -6 108 -31.5t96.5 -67.5t71.5 -108.5t27 -145.5q0 -196 -125 -299.5t-379 -103.5h-585zM444 860h252
q92 0 150.5 48.5t58.5 146.5q0 178 -180 178h-281v-373z" />
    <glyph glyph-name="C" unicode="C" horiz-adv-x="1402" 
d="M1315 1079l-285 -59q-11 105 -82 172.5t-176 67.5q-169 0 -264.5 -131t-95.5 -400q0 -270 86.5 -400t242.5 -130q73 0 131 25.5t92 66.5t53.5 82.5t26.5 83.5l287 -64q-3 -21 -11 -47.5t-28 -69.5t-48.5 -83t-77 -82.5t-108 -74t-147 -51.5t-190.5 -20
q-292 0 -462.5 197.5t-170.5 566.5q0 185 50 330.5t141 240t216 144t277 49.5q221 0 356.5 -108.5t186.5 -305.5z" />
    <glyph glyph-name="D" unicode="D" horiz-adv-x="1478" 
d="M150 0v1458h577q90 0 176.5 -21t176.5 -74t157 -133.5t109.5 -210.5t42.5 -294q0 -358 -201.5 -541.5t-558.5 -183.5h-479zM457 1225v-992h184q105 0 186.5 38.5t132.5 106.5t77.5 157.5t27.5 195.5q-1 100 -24 185.5t-71 156.5t-131 111.5t-194 40.5h-188z" />
    <glyph glyph-name="E" unicode="E" horiz-adv-x="1214" 
d="M150 0v1458h946v-233h-639v-357h604v-233h-604v-402h659v-233h-966z" />
    <glyph glyph-name="F" unicode="F" horiz-adv-x="1175" 
d="M150 0v1458h950v-233h-643v-396h616v-233h-616v-596h-307z" />
    <glyph glyph-name="G" unicode="G" horiz-adv-x="1441" 
d="M1329 1118l-285 -74q-7 70 -87.5 143t-184.5 73q-169 0 -264.5 -131t-95.5 -400t95.5 -399.5t264.5 -130.5q119 0 254 59v328h-252v225h547v-688q-89 -58 -236.5 -108t-312.5 -50q-152 0 -277 49.5t-216 144t-141 240t-50 330.5t50 330.5t141 240t216 144t277 49.5
q126 0 221.5 -27t159.5 -80t104.5 -117t71.5 -151z" />
    <glyph glyph-name="H" unicode="H" horiz-adv-x="1478" 
d="M150 0v1458h307v-573h565v573h307v-1458h-307v651h-565v-651h-307z" />
    <glyph glyph-name="I" unicode="I" horiz-adv-x="606" 
d="M150 0v1458h307v-1458h-307z" />
    <glyph glyph-name="J" unicode="J" horiz-adv-x="833" 
d="M-29 53l123 219q59 -65 137 -65q86 0 121 56.5t35 170.5v1024h307v-1057q0 -91 -26.5 -169t-78.5 -138t-136 -94.5t-191 -34.5q-179 0 -291 88z" />
    <glyph glyph-name="K" unicode="K" horiz-adv-x="1366" 
d="M150 0v1458h307v-620h4l500 620h366l-579 -690l616 -768h-389l-514 668h-4v-668h-307z" />
    <glyph glyph-name="L" unicode="L" horiz-adv-x="1062" 
d="M150 0v1458h307v-1216h579v-242h-886z" />
    <glyph glyph-name="M" unicode="M" horiz-adv-x="1933" 
d="M846 0l-326 952q-23 67 -46 156t-28 125h-18q4 -110 4 -158v-1075h-282v1458h477l270 -811q43 -131 64 -254h12q22 130 63 254l271 811h477v-1458h-283v1075q0 48 4 158h-18q-5 -36 -28 -125t-46 -156l-326 -952h-241z" />
    <glyph glyph-name="N" unicode="N" horiz-adv-x="1554" 
d="M150 0v1458h395l389 -706q64 -117 119 -241t69 -192h15q-15 139 -15 402v737h283v-1458h-406l-444 834q-84 154 -125 305h-12q14 -233 14 -338v-801h-282z" />
    <glyph glyph-name="O" unicode="O" horiz-adv-x="1515" 
d="M758 199q169 0 264.5 130.5t95.5 399.5t-95.5 400t-264.5 131q-170 0 -265.5 -131t-95.5 -400t95.5 -399.5t265.5 -130.5zM758 -35q-152 0 -277 49.5t-216 144t-141 240t-50 330.5t50 330.5t141 240t216 144t277 49.5t277 -49.5t216 -144t141 -240t50 -330.5t-50 -330.5
t-141 -240t-216 -144t-277 -49.5z" />
    <glyph glyph-name="P" unicode="P" horiz-adv-x="1251" 
d="M123 0v1458h579q127 0 224 -34.5t155 -96.5t86.5 -141t28.5 -174q0 -99 -28 -178.5t-75 -132t-111 -88t-133 -51t-144 -15.5h-275v-547h-307zM430 772h205q266 0 266 252q0 93 -48.5 151t-152.5 58h-270v-461z" />
    <glyph glyph-name="Q" unicode="Q" horiz-adv-x="1515" 
d="M758 199q169 0 264.5 130.5t95.5 399.5t-95.5 400t-264.5 131q-170 0 -265.5 -131t-95.5 -400t95.5 -399.5t265.5 -130.5zM1241 -383l-496 348q-141 0 -261.5 47.5t-212.5 139.5t-144.5 240t-52.5 337q0 185 50 330.5t141 240t216 144t277 49.5t277 -49.5t216 -144
t141 -240t50 -330.5q0 -262 -98 -440t-273 -258l342 -219z" />
    <glyph glyph-name="R" unicode="R" horiz-adv-x="1327" 
d="M457 829h235q107 0 163 48t56 157q0 106 -47.5 152.5t-138.5 46.5h-268v-404zM954 0l-268 604h-229v-604h-307v1458h612q229 0 343 -113.5t114 -310.5q0 -145 -65 -230.5t-185 -135.5l329 -668h-344z" />
    <glyph glyph-name="S" unicode="S" horiz-adv-x="1251" 
d="M1133 1194l-279 -92q-8 26 -14.5 41.5t-23.5 42.5t-37.5 42t-56.5 27.5t-81 12.5q-115 0 -172 -52t-57 -122q0 -56 26 -88t99 -62l319 -133q159 -66 233 -156.5t74 -232.5q0 -93 -36.5 -175t-105.5 -145.5t-177.5 -100t-243.5 -36.5q-97 0 -180.5 21.5t-141.5 55.5
t-101.5 80t-68 92t-34.5 93l276 105q6 -40 21.5 -74.5t44.5 -67.5t80 -52t118 -19q110 0 176 52t66 140q0 59 -40 103t-136 81l-195 76q-64 24 -113.5 48t-102 60.5t-87 77t-56.5 98t-22 124.5q0 64 17 123.5t57 116.5t99.5 99.5t151.5 68.5t206 26q96 0 169.5 -13.5
t139 -46t113 -92t76.5 -147.5z" />
    <glyph glyph-name="T" unicode="T" horiz-adv-x="1138" 
d="M416 0v1217h-400v241h1106v-241h-399v-1217h-307z" />
    <glyph glyph-name="U" unicode="U" horiz-adv-x="1441" 
d="M1012 1458h295v-885q0 -301 -152 -454.5t-455 -153.5q-275 0 -420 155t-145 453v885h295v-885q0 -179 67.5 -276.5t223.5 -97.5t223.5 97.5t67.5 276.5v885z" />
    <glyph glyph-name="V" unicode="V" horiz-adv-x="1366" 
d="M10 1458h324l293 -987q15 -51 45 -197h12q17 85 55 207l310 977h307l-488 -1458h-397z" />
    <glyph glyph-name="W" unicode="W" horiz-adv-x="1972" 
d="M365 0l-347 1458h312l168 -807q16 -77 35.5 -205.5t23.5 -189.5h18q11 166 62 403l170 799h377l184 -876q26 -118 49 -326h19q6 136 49 344l180 858h289l-340 -1458h-385l-185 852q-15 69 -29 185t-16 165h-18q-3 -46 -21.5 -158.5t-31.5 -173.5l-180 -870h-383z" />
    <glyph glyph-name="X" unicode="X" horiz-adv-x="1402" 
d="M412 1458l190 -330q62 -101 103 -206h8q19 65 92 182l201 354h340l-437 -696l475 -762h-362l-231 399q-73 131 -93 193h-14q-31 -84 -102 -207l-222 -385h-342l476 762l-437 696h355z" />
    <glyph glyph-name="Y" unicode="Y" horiz-adv-x="1366" 
d="M526 0v563l-524 895h358l256 -469q30 -54 72 -170h6q27 89 76 178l250 461h344l-530 -895v-563h-308z" />
    <glyph glyph-name="Z" unicode="Z" horiz-adv-x="1175" 
d="M57 0v242l693 983h-672v233h1026v-246l-688 -979h700v-233h-1059z" />
    <glyph glyph-name="bracketleft" unicode="[" horiz-adv-x="606" 
d="M143 -266v1818h410v-143h-168v-1532h168v-143h-410z" />
    <glyph glyph-name="backslash" unicode="\" horiz-adv-x="796" 
d="M190 1528l603 -1528l-187 -68l-602 1528z" />
    <glyph glyph-name="bracketright" unicode="]" horiz-adv-x="606" 
d="M463 1552v-1818h-410v143h168v1532h-168v143h410z" />
    <glyph glyph-name="asciicircum" unicode="^" horiz-adv-x="1228" 
d="M129 651l395 807h181l395 -807h-197l-291 611l-286 -611h-197z" />
    <glyph glyph-name="underscore" unicode="_" horiz-adv-x="1024" 
d="M1024 -256h-1024v102h1024v-102z" />
    <glyph glyph-name="grave" unicode="`" horiz-adv-x="569" 
d="M281 1655l202 -299h-213l-325 299h336z" />
    <glyph glyph-name="a" unicode="a" horiz-adv-x="1175" 
d="M782 0l-10 184q-167 -209 -377 -209q-158 0 -248 101.5t-90 269.5q0 92 29.5 164t81 120t126 79.5t160.5 45t189 13.5h129v94q0 84 -48 137.5t-149 53.5q-41 0 -72 -9.5t-51.5 -23.5t-39 -41t-28.5 -50t-26 -63l-258 72q30 71 65.5 122.5t91 96.5t138.5 68.5t191 23.5
q104 0 187 -24t147.5 -75t99.5 -138t35 -205v-598q0 -81 10 -209h-283zM772 344v248h-88q-181 0 -262.5 -55t-81.5 -166q0 -78 41 -124t111 -46q80 0 126.5 25t153.5 118z" />
    <glyph glyph-name="b" unicode="b" horiz-adv-x="1290" 
d="M143 0v1591h295v-510q40 35 53.5 47t47.5 38.5t53.5 36t51 23.5t63.5 18.5t69 4.5q100 0 177.5 -41t124 -104t76 -149.5t40 -168t10.5 -168.5q0 -316 -107.5 -479.5t-318.5 -163.5q-95 0 -177 40t-163 130v-145h-295zM438 887v-549q100 -137 236 -137q117 0 173 110.5
t56 304.5q0 408 -241 408q-123 0 -224 -137z" />
    <glyph glyph-name="c" unicode="c" horiz-adv-x="1099" 
d="M821 401l266 -67q-14 -40 -25.5 -67.5t-33 -68.5t-45 -69t-61 -59.5t-80.5 -50.5t-103 -31.5t-131 -12.5q-96 0 -175.5 25t-135.5 70t-97.5 104t-66 131t-36 147t-11.5 156q0 108 18.5 202t59.5 175.5t102 139.5t150.5 91t201.5 33q89 0 165 -26t126.5 -66t87.5 -90.5
t55 -95.5t23 -84l-274 -74q-2 96 -50 161.5t-139 65.5q-115 0 -167 -101t-52 -308q0 -105 9.5 -180t33 -138.5t68.5 -96t112 -32.5q49 0 88.5 21.5t63 56t36.5 69.5t17 70z" />
    <glyph glyph-name="d" unicode="d" horiz-adv-x="1290" 
d="M1147 1591v-1591h-295v145q-81 -90 -163 -130t-177 -40q-211 0 -318.5 163.5t-107.5 479.5q0 87 10.5 168.5t40 168t76 149.5t124 104t177.5 41q37 0 69 -4.5t63.5 -18.5t51 -23.5t53.5 -36t47.5 -38.5t53.5 -47v510h295zM852 338v549q-101 137 -223 137
q-242 0 -242 -408q0 -194 56 -304.5t173 -110.5q136 0 236 137z" />
    <glyph glyph-name="e" unicode="e" 
d="M852 367l250 -82q-126 -310 -475 -310q-259 0 -410 171.5t-151 469.5q0 287 149 460t414 173q126 0 226.5 -48t163 -131t95.5 -190.5t33 -230.5v-110h-787q0 -61 12 -118t39 -113t81 -90t129 -34q91 0 152 57.5t79 125.5zM360 735h492q0 147 -62.5 227.5t-171.5 77.5
q-65 1 -114.5 -23.5t-79 -69t-45 -97t-19.5 -115.5z" />
    <glyph glyph-name="f" unicode="f" horiz-adv-x="757" 
d="M203 0v915h-176v209h176v111q0 403 415 403q90 0 177 -22v-209q-59 23 -144 23q-153 0 -153 -205v-101h241v-209h-241v-915h-295z" />
    <glyph glyph-name="g" unicode="g" horiz-adv-x="1214" 
d="M1200 1225v-164h-239q18 -18 29.5 -32t29 -42.5t26.5 -67t9 -85.5q0 -50 -14.5 -98.5t-50 -98t-89 -86t-139.5 -59.5t-193 -23q-41 0 -77 8q-31 -31 -31 -69q0 -21 14.5 -32t54.5 -22l369 -100q268 -72 268 -301q0 -100 -48 -174t-131 -114.5t-179 -59.5t-207 -19
q-255 0 -401 86.5t-146 229.5q0 54 17 100.5t38.5 75.5t59 57.5t59.5 41t58 30.5q-36 20 -54 56.5t-18 72.5q0 50 34.5 101.5t84.5 74.5q-139 66 -192.5 144.5t-53.5 203.5q0 165 126 277t323 112q63 0 221 -24h442zM573 666q97 0 156 53t59 141q0 66 -33.5 111t-79 63.5
t-97.5 18.5q-111 0 -167.5 -52t-56.5 -141q0 -88 61 -141t158 -53zM745 51l-303 78q-61 -41 -95 -85.5t-34 -106.5q0 -82 84.5 -122t214.5 -40q273 0 273 151q0 52 -36 80t-104 45z" />
    <glyph glyph-name="h" unicode="h" horiz-adv-x="1290" 
d="M143 0v1591h295v-549q44 43 82 73.5t91 64t113.5 51.5t123.5 18q86 0 147 -30t93 -83.5t45.5 -113.5t13.5 -133v-889h-295v825q0 85 -40.5 129.5t-113.5 44.5q-65 0 -117 -33.5t-143 -119.5v-846h-295z" />
    <glyph glyph-name="i" unicode="i" horiz-adv-x="569" 
d="M137 0v1225h295v-1225h-295zM137 1372v219h295v-219h-295z" />
    <glyph glyph-name="j" unicode="j" horiz-adv-x="569" 
d="M137 -20v1245h295v-1303q0 -162 -94 -249t-254 -87q-87 0 -158 19l15 221q44 -14 75 -14q61 0 91 40t30 128zM137 1372v219h295v-219h-295z" />
    <glyph glyph-name="k" unicode="k" horiz-adv-x="1214" 
d="M145 1591h295v-909h4l390 547h342l-439 -578l473 -651h-354l-412 614h-4v-614h-295v1591z" />
    <glyph glyph-name="l" unicode="l" horiz-adv-x="569" 
d="M137 0v1591h295v-1591h-295z" />
    <glyph glyph-name="m" unicode="m" horiz-adv-x="1933" 
d="M143 0v1225h295v-181q46 45 67.5 65.5t63 53.5t73 47.5t75.5 26.5t92 12q210 0 285 -205q185 205 389 205q158 0 232.5 -97.5t74.5 -264.5v-887h-295v817q0 86 -37.5 134t-105.5 48q-58 0 -104 -28.5t-134 -122.5v-848h-295v817q0 86 -37.5 134t-105.5 48
q-58 0 -104 -28.5t-134 -122.5v-848h-295z" />
    <glyph glyph-name="n" unicode="n" horiz-adv-x="1290" 
d="M852 0v825q0 85 -40.5 129.5t-113.5 44.5q-65 0 -117 -33.5t-143 -119.5v-846h-295v1225h295v-183q44 43 82 73.5t91 64t113.5 51.5t123.5 18q86 0 147 -30t93 -83.5t45.5 -113.5t13.5 -133v-889h-295z" />
    <glyph glyph-name="o" unicode="o" horiz-adv-x="1253" 
d="M373 612q0 -428 254 -428t254 428q0 219 -66.5 323.5t-187.5 104.5t-187.5 -104.5t-66.5 -323.5zM66 616q0 283 153 458t408 175q176 0 303.5 -80.5t192.5 -222.5t65 -330q0 -295 -155.5 -468t-405.5 -173q-259 0 -410 171.5t-151 469.5z" />
    <glyph glyph-name="p" unicode="p" horiz-adv-x="1290" 
d="M143 -399v1624h295v-144q40 35 53.5 47t47.5 38.5t53.5 36t51 23.5t63.5 18.5t69 4.5q100 0 177.5 -41t124 -104t76 -149.5t40 -168t10.5 -168.5q0 -316 -107.5 -479.5t-318.5 -163.5q-95 0 -177 40t-163 130v-544h-295zM438 887v-549q100 -137 236 -137q117 0 173 110.5
t56 304.5q0 408 -241 408q-123 0 -224 -137z" />
    <glyph glyph-name="q" unicode="q" horiz-adv-x="1290" 
d="M1147 1225v-1624h-295v544q-81 -90 -163 -130t-177 -40q-211 0 -318.5 163.5t-107.5 479.5q0 87 10.5 168.5t40 168t76 149.5t124 104t177.5 41q37 0 69 -4.5t63.5 -18.5t51 -23.5t53.5 -36t47.5 -38.5t53.5 -47v144h295zM852 338v549q-101 137 -223 137
q-242 0 -242 -408q0 -194 56 -304.5t173 -110.5q136 0 236 137z" />
    <glyph glyph-name="r" unicode="r" horiz-adv-x="833" 
d="M143 0v1225h295v-193h4q69 91 157.5 154t188.5 63q20 0 56 -4v-270q-78 8 -105 8q-42 0 -81.5 -11t-67 -25.5t-59.5 -41t-49 -43.5t-44 -47v-815h-295z" />
    <glyph glyph-name="s" unicode="s" horiz-adv-x="1062" 
d="M987 965l-246 -76q-7 24 -12.5 40t-21.5 42t-37 42t-58 28t-84 12q-66 0 -112.5 -35t-46.5 -103q0 -32 11.5 -55.5t35 -39t39 -22t43.5 -16.5l235 -77q277 -88 277 -334q0 -396 -523 -396q-90 0 -163.5 23t-118.5 56t-79 78t-49 81.5t-24 73.5l252 78q26 -91 77.5 -136
t147.5 -45q63 0 107 26.5t61 60t17 67.5q1 61 -34.5 91t-100.5 48l-189 60q-305 93 -305 340q0 96 36.5 169.5t99.5 116.5t140 64.5t166 21.5q101 0 182.5 -23t135.5 -64t88.5 -90t52.5 -107z" />
    <glyph glyph-name="t" unicode="t" horiz-adv-x="833" 
d="M784 1124v-209h-286v-503q0 -46 1.5 -72t9.5 -56.5t23.5 -46t43.5 -26t69 -10.5q86 0 143 24v-213q-32 -13 -97.5 -25t-131.5 -12q-100 0 -171.5 31.5t-110.5 88t-56.5 123.5t-17.5 149v548h-176v209h176v279l295 123v-402h286z" />
    <glyph glyph-name="u" unicode="u" horiz-adv-x="1251" 
d="M1120 1225v-1225h-295v186q-94 -94 -192 -152.5t-217 -58.5q-65 0 -115.5 20.5t-82 54.5t-51.5 81.5t-28 97.5t-8 107v889h295v-826q0 -84 38 -129t101 -45q34 0 63 9t64.5 34.5t58 45.5t74.5 69v842h295z" />
    <glyph glyph-name="v" unicode="v" horiz-adv-x="1138" 
d="M397 0l-393 1225h318l190 -641q14 -46 24 -95.5t19 -108.5t14 -83h13q15 145 57 285l201 643h295l-392 -1225h-346z" />
    <glyph glyph-name="w" unicode="w" horiz-adv-x="1857" 
d="M1155 0l-166 672q-22 86 -51 258h-12q-2 -61 -41 -242l-156 -688h-371l-348 1225h309l152 -594q13 -49 25 -107t26 -130t21 -107h12q13 123 66 344l135 594h368l144 -609q47 -199 67 -329h15q8 105 65 344l137 594h295l-321 -1225h-371z" />
    <glyph glyph-name="x" unicode="x" horiz-adv-x="1175" 
d="M2 0l385 653l-342 572h334l160 -297q49 -95 61 -125h8q27 65 51 108l175 314h307l-344 -568l377 -657h-343l-200 377q-32 63 -43 96h-10q-1 -1 -20.5 -38.5t-29.5 -57.5l-211 -377h-315z" />
    <glyph glyph-name="y" unicode="y" horiz-adv-x="1138" 
d="M102 -385l15 227q81 -22 121 -22q27 0 45.5 4.5t45 22.5t53 61t52.5 112l-430 1205h318l188 -582q11 -33 20 -70.5t14.5 -66t14.5 -79t16 -85.5h13q14 145 63 293l189 590h295l-445 -1309q-58 -173 -142 -251.5t-235 -78.5q-105 0 -211 29z" />
    <glyph glyph-name="z" unicode="z" horiz-adv-x="1062" 
d="M47 0v197l596 819h-571v209h923v-199l-598 -817h619v-209h-969z" />
    <glyph glyph-name="braceleft" unicode="{" horiz-adv-x="720" 
d="M63 569v150q66 0 119.5 49.5t53.5 142.5v381q0 62 24 113.5t62 82.5t81.5 47.5t85.5 16.5h179v-143h-105q-106 0 -106 -149v-377q-1 -55 -16.5 -98t-37 -67.5t-50.5 -41.5t-50.5 -23t-42.5 -8v-4q21 -2 42.5 -8t50.5 -23t50.5 -41.5t37 -67.5t16.5 -98v-376
q0 -150 106 -150h105v-143h-179q-42 0 -85.5 16.5t-81.5 47.5t-62 82.5t-24 113.5v381q0 93 -53.5 143.5t-119.5 50.5z" />
    <glyph glyph-name="bar" unicode="|" horiz-adv-x="454" 
d="M129 -512v2048h197v-2048h-197z" />
    <glyph glyph-name="braceright" unicode="}" horiz-adv-x="720" 
d="M657 717v-150q-66 0 -119 -49.5t-53 -142.5v-381q0 -62 -24 -113.5t-62.5 -82.5t-82 -47.5t-85.5 -16.5h-178v143h105q106 0 106 150v376q1 55 16.5 98t37 67.5t50.5 41.5t50.5 23t42.5 8v4q-21 2 -42.5 8t-50.5 23t-50.5 41.5t-37 67.5t-16.5 98v377q0 149 -106 149
h-105v143h178q42 0 85.5 -16.5t82 -47.5t62.5 -82.5t24 -113.5v-381q0 -93 53.5 -143.5t118.5 -50.5z" />
    <glyph glyph-name="asciitilde" unicode="~" horiz-adv-x="1228" 
d="M1014 688l73 -156q-23 -32 -38.5 -52t-41 -46.5t-49.5 -41t-57 -25.5t-70 -11q-52 0 -99 17t-109 51q-128 72 -236 72q-61 0 -101.5 -41t-70.5 -107l-74 156q92 176 256 176q81 0 228 -66q12 -5 44 -19.5t48 -21t40.5 -15.5t42.5 -13t34 -4q29 0 55 11.5t49.5 36t38 44.5
t37.5 55z" />
    <glyph glyph-name="uni00A0" unicode="&#xa0;" horiz-adv-x="606" 
 />
    <glyph glyph-name="exclamdown" unicode="&#xa1;" horiz-adv-x="679" 
d="M451 764l36 -997h-294l36 997h222zM471 1225v-271h-262v271h262z" />
    <glyph glyph-name="cent" unicode="&#xa2;" 
d="M463 293l237 737q-33 10 -69 10q-115 0 -167 -101t-52 -308q0 -236 51 -338zM328 -131l51 162q-74 38 -128.5 100t-85.5 139.5t-46 161.5t-15 176q0 108 18.5 202t59.5 175.5t102.5 139.5t151 91t201.5 33q73 0 129 -12l51 158l107 -35l-50 -158q177 -77 240 -276
l-246 -86q-20 77 -69 129l-246 -766q36 -19 82 -19q102 0 152 43t85 150l248 -74q-99 -328 -493 -328q-72 0 -142 17l-51 -158z" />
    <glyph glyph-name="sterling" unicode="&#xa3;" 
d="M119 0v209h160v446h-154v189h154v182q0 64 12 124t44 124t82.5 111t135 77.5t192.5 30.5q182 0 283 -68t148 -229l-263 -70q-8 33 -18 55.5t-29 48.5t-52 40t-79 14t-79.5 -15.5t-53 -39.5t-31 -60t-15 -70.5t-3.5 -78.5v-176h307v-189h-307v-446h534v-209h-968z" />
    <glyph glyph-name="currency" unicode="&#xa4;" 
d="M78 317l117 119q-101 116 -101 293t101 293l-117 119l108 108l115 -116q114 102 305 102t305 -102l115 116l109 -108l-117 -119q100 -115 100 -293t-100 -293l117 -119l-109 -108l-115 117q-115 -103 -305 -103t-305 103l-115 -117zM291 729q0 -132 92 -224.5t223 -92.5
t223.5 92.5t92.5 224.5t-92.5 225t-223.5 93t-223 -93t-92 -225z" />
    <glyph glyph-name="yen" unicode="&#xa5;" 
d="M459 0v281h-303v131h303v123h-303v131h237l-391 792h326l284 -672h13l284 672h301l-391 -792h238v-131h-303v-123h303v-131h-303v-281h-295z" />
    <glyph glyph-name="brokenbar" unicode="&#xa6;" horiz-adv-x="454" 
d="M129 -358v716h197v-716h-197zM129 666v716h197v-716h-197z" />
    <glyph glyph-name="section" unicode="&#xa7;" 
d="M137 -10l211 102q8 -19 12.5 -29t17 -31.5t23.5 -35t30.5 -31t41 -27t51.5 -17t64 -7.5q93 0 136.5 44t43.5 93q0 31 -9.5 53.5t-37 42.5t-50 31.5t-75.5 36.5l-215 98q-229 105 -229 308q0 102 60.5 171t154.5 103q-35 22 -57.5 39t-52.5 49t-45 76t-15 98
q0 64 23.5 122t72 107t133.5 78t197 29q79 2 144.5 -12.5t109 -37t78 -55t53 -60.5t32.5 -60l-211 -113q-17 35 -29 54.5t-36.5 46.5t-60 40t-82.5 13q-26 0 -53 -6.5t-54.5 -20t-45 -41.5t-17.5 -65q0 -58 33.5 -92t101.5 -64l260 -117q115 -52 172 -131.5t57 -173.5
q0 -190 -188 -262q86 -55 114.5 -116.5t28.5 -129.5q0 -54 -13.5 -104.5t-46.5 -100t-82 -86.5t-127 -59.5t-175 -22.5q-98 0 -182.5 29t-137 73t-85 88t-44.5 83zM678 727l-180 84q-49 -21 -82 -58.5t-33 -86.5q0 -47 33 -86t86 -62l250 -112q33 19 62.5 56.5t29.5 86.5
q0 61 -43 101t-123 77z" />
    <glyph glyph-name="dieresis" unicode="&#xa8;" horiz-adv-x="569" 
d="M354 1591h295v-219h-295v219zM-80 1591h295v-219h-295v219z" />
    <glyph glyph-name="copyright" unicode="&#xa9;" horiz-adv-x="1638" 
d="M1047 602h163q-24 -150 -124.5 -234.5t-237.5 -84.5q-190 0 -309 128t-119 322q0 200 114.5 327.5t309.5 127.5q142 0 240.5 -82.5t119.5 -233.5h-157q-12 75 -68.5 120.5t-134.5 45.5q-111 0 -173.5 -84t-62.5 -217q0 -127 66.5 -216t173.5 -89q81 0 135.5 46.5
t63.5 123.5zM55 729q0 155 60.5 296.5t163 244t244 163t296.5 60.5t296.5 -60.5t244 -163t163 -244t60.5 -296.5t-60.5 -296.5t-163 -244t-244 -163t-296.5 -60.5t-296.5 60.5t-244 163t-163 244t-60.5 296.5zM225 729q0 -161 79.5 -298t216.5 -216.5t298 -79.5t298 79.5
t216.5 216.5t79.5 298t-79.5 298t-216.5 216.5t-298 79.5t-298 -79.5t-216.5 -216.5t-79.5 -298z" />
    <glyph glyph-name="ordfeminine" unicode="&#xaa;" horiz-adv-x="757" 
d="M233 1262l-167 45q37 88 109 137t210 49q154 0 233.5 -62.5t79.5 -203.5v-359q0 -55 9 -125h-197v111h-8q-105 -125 -246 -125q-105 0 -166 61t-61 160q0 68 29 119t79 80t110 43t130 14h125v56q0 49 -31 78.5t-96 29.5q-63 0 -92.5 -26.5t-49.5 -81.5zM502 950v144h-84
q-193 0 -193 -127q0 -48 27 -76.5t72 -28.5q93 0 178 88z" />
    <glyph glyph-name="guillemotleft" unicode="&#xab;" horiz-adv-x="1099" 
d="M528 614l361 494l162 -109l-256 -385l256 -385l-162 -106zM49 614l361 494l161 -109l-256 -385l256 -385l-161 -106z" />
    <glyph glyph-name="logicalnot" unicode="&#xac;" horiz-adv-x="1228" 
d="M934 221v418h-836v197h1032v-615h-196z" />
    <glyph glyph-name="uni00AD" unicode="&#xad;" horiz-adv-x="645" 
d="M72 717h503v-209h-503v209z" />
    <glyph glyph-name="registered" unicode="&#xae;" horiz-adv-x="1638" 
d="M987 307l-209 355h-106v-355h-170v854h323q167 0 251.5 -59.5t84.5 -194.5q0 -110 -62 -172t-159 -65l223 -363h-176zM672 784h151q168 0 168 123q0 56 -41 83.5t-102 27.5h-176v-234zM55 729q0 155 60.5 296.5t163 244t244 163t296.5 60.5t296.5 -60.5t244 -163
t163 -244t60.5 -296.5t-60.5 -296.5t-163 -244t-244 -163t-296.5 -60.5t-296.5 60.5t-244 163t-163 244t-60.5 296.5zM225 729q0 -161 79.5 -298t216.5 -216.5t298 -79.5t298 79.5t216.5 216.5t79.5 298t-79.5 298t-216.5 216.5t-298 79.5t-298 -79.5t-216.5 -216.5
t-79.5 -298z" />
    <glyph glyph-name="macron" unicode="&#xaf;" horiz-adv-x="569" 
d="M-33 1583h635v-156h-635v156z" />
    <glyph glyph-name="degree" unicode="&#xb0;" horiz-adv-x="819" 
d="M117 1200q0 122 85.5 207.5t207.5 85.5q121 0 206.5 -85.5t85.5 -207.5t-85.5 -207.5t-206.5 -85.5q-122 0 -207.5 85.5t-85.5 207.5zM260 1200q0 -61 44 -105t106 -44t105.5 43.5t43.5 105.5t-44 106t-105 44q-62 0 -106 -44t-44 -106z" />
    <glyph glyph-name="plusminus" unicode="&#xb1;" horiz-adv-x="1228" 
d="M516 750v286h197v-286h417v-197h-417v-287h-197v287h-418v197h418zM98 0v197h1032v-197h-1032z" />
    <glyph glyph-name="twosuperior" unicode="&#xb2;" horiz-adv-x="788" 
d="M74 596v125l272 246q184 161 184 250q0 58 -34 89t-101 31q-69 0 -106 -40.5t-43 -88.5l-189 27q21 125 111 191.5t250 66.5q142 0 225.5 -71t83.5 -179q0 -79 -38 -145.5t-111 -134.5l-232 -211h373v-156h-645z" />
    <glyph glyph-name="threesuperior" unicode="&#xb3;" horiz-adv-x="788" 
d="M55 815l170 35q6 -50 50 -84.5t104 -34.5q70 0 108.5 36.5t38.5 82.5q0 65 -49 98t-131 33h-55v133q45 2 76 6.5t67 16.5t55 37.5t19 64.5q0 45 -33 78t-92 33q-35 0 -61 -8.5t-43.5 -27.5t-23 -27t-17.5 -30l-172 43q41 98 121 145.5t206 47.5q58 0 108 -10.5t96 -35
t72.5 -71t26.5 -110.5q0 -69 -44 -124t-132 -83v-4q195 -33 195 -215q0 -46 -17 -88.5t-53.5 -82t-103.5 -63.5t-156 -24q-140 0 -218.5 58t-111.5 175z" />
    <glyph glyph-name="acute" unicode="&#xb4;" horiz-adv-x="569" 
d="M86 1356l203 299h336l-326 -299h-213z" />
    <glyph glyph-name="mu" unicode="&#xb5;" horiz-adv-x="1251" 
d="M131 -399v1624h295v-795q0 -64 11 -106.5t33 -63t46.5 -28t58.5 -7.5q21 0 38.5 2.5t36 12t30.5 15.5t33.5 24.5t31.5 27.5t38.5 36.5t41.5 39.5v842h295v-1225h-295v162h-4q-19 -43 -37 -72t-44.5 -55t-63.5 -38.5t-84 -12.5q-104 0 -162 90h-4v-473h-295z" />
    <glyph glyph-name="paragraph" unicode="&#xb6;" horiz-adv-x="1228" 
d="M455 -248v967q-197 0 -314.5 99t-117.5 263q0 377 487 377h577v-1706h-208v1553h-215v-1553h-209z" />
    <glyph glyph-name="periodcentered" unicode="&#xb7;" horiz-adv-x="606" 
d="M135 600q0 69 49.5 118.5t118.5 49.5t118.5 -49.5t49.5 -118.5t-49.5 -118.5t-118.5 -49.5t-118.5 49.5t-49.5 118.5z" />
    <glyph glyph-name="cedilla" unicode="&#xb8;" horiz-adv-x="569" 
d="M240 0h104l-84 -129q42 10 80 10q49 0 85 -15t55 -39.5t27.5 -49.5t8.5 -49q0 -20 -5.5 -41.5t-22 -48.5t-42.5 -48t-71 -35t-103 -14q-98 0 -245 51l36 89q47 -17 66.5 -23.5t49 -12t61.5 -5.5q42 0 73 22t31 57q0 38 -24 61t-64 23q-49 0 -90 -18l-45 33z" />
    <glyph glyph-name="onesuperior" unicode="&#xb9;" horiz-adv-x="788" 
d="M362 596v684l-206 -154l-93 103l320 229h176v-862h-197z" />
    <glyph glyph-name="ordmasculine" unicode="&#xba;" horiz-adv-x="794" 
d="M238 1110q0 -127 42.5 -187.5t118.5 -60.5q74 0 117 60.5t43 187.5q0 126 -43 188t-117 62q-75 0 -118 -62t-43 -188zM27 1114q0 172 97.5 275.5t274.5 103.5q176 0 273.5 -104t97.5 -275q0 -180 -99.5 -282.5t-271.5 -102.5q-173 0 -272.5 102.5t-99.5 282.5z" />
    <glyph glyph-name="guillemotright" unicode="&#xbb;" horiz-adv-x="1099" 
d="M571 614l-360 -493l-162 106l256 387l-256 383l162 107zM1051 614l-361 -493l-162 106l256 387l-256 383l162 107z" />
    <glyph glyph-name="onequarter" unicode="&#xbc;" horiz-adv-x="1820" 
d="M1417 0v139h-413v160l385 575h210v-591h121v-144h-121v-139h-182zM1417 283v235q0 79 17 184h-9q-25 -55 -65 -118l-191 -301h248zM414 -51l792 1560h162l-793 -1560h-161zM362 596v684l-206 -154l-93 103l320 229h176v-862h-197z" />
    <glyph glyph-name="onehalf" unicode="&#xbd;" horiz-adv-x="1820" 
d="M352 -51l793 1560h162l-793 -1560h-162zM362 596v684l-206 -154l-93 103l320 229h176v-862h-197zM1026 -2v125l272 246q50 44 83 76t67.5 83t34.5 90q0 58 -34 89.5t-101 31.5q-69 0 -106.5 -40.5t-43.5 -88.5l-188 27q21 125 110.5 191.5t249.5 66.5q142 0 225.5 -71
t83.5 -179q0 -79 -38 -145.5t-111 -134.5l-232 -211h373v-156h-645z" />
    <glyph glyph-name="threequarters" unicode="&#xbe;" horiz-adv-x="1820" 
d="M1417 0v139h-413v160l385 575h210v-591h121v-144h-121v-139h-182zM1417 283v235q0 79 17 184h-9q-25 -55 -65 -118l-191 -301h248zM455 -51l792 1560h162l-793 -1560h-161zM63 815l170 35q6 -50 50 -84.5t104 -34.5q70 0 109 36.5t39 82.5q0 65 -49.5 98t-131.5 33h-55
v133q45 2 76 6.5t67 16.5t55 37.5t19 64.5q0 45 -33 78t-92 33q-35 0 -61 -8.5t-43.5 -27.5t-23 -27t-17.5 -30l-172 43q41 98 121 145.5t206 47.5q58 0 108 -10.5t96 -35t73 -71t27 -110.5q0 -69 -44.5 -124t-132.5 -83v-4q195 -33 195 -215q0 -46 -17 -88.5t-53.5 -82
t-103.5 -63.5t-156 -24q-140 0 -218.5 58t-111.5 175z" />
    <glyph glyph-name="questiondown" unicode="&#xbf;" horiz-adv-x="1099" 
d="M662 764v-102q0 -140 -82 -224l-109 -108q-63 -63 -87 -114t-24 -107q0 -73 48.5 -120.5t136.5 -47.5q44 0 78.5 15t54.5 36.5t34 49.5t19.5 47.5t7.5 37.5l258 -53q-86 -342 -475 -342q-199 0 -315.5 103t-116.5 269q0 161 148 295l88 80q110 99 110 183v102h226z
M680 1225v-271h-262v271h262z" />
    <glyph glyph-name="Agrave" unicode="&#xc0;" horiz-adv-x="1478" 
d="M512 565h451l-162 459q-41 113 -58 201h-10q-17 -104 -53 -201zM4 0l549 1458h391l531 -1458h-322l-117 340h-602l-121 -340h-309zM735 1858l203 -299h-213l-326 299h336z" />
    <glyph glyph-name="Aacute" unicode="&#xc1;" horiz-adv-x="1478" 
d="M512 565h451l-162 459q-41 113 -58 201h-10q-17 -104 -53 -201zM4 0l549 1458h391l531 -1458h-322l-117 340h-602l-121 -340h-309zM541 1559l202 299h336l-325 -299h-213z" />
    <glyph glyph-name="Acircumflex" unicode="&#xc2;" horiz-adv-x="1478" 
d="M512 565h451l-162 459q-41 113 -58 201h-10q-17 -104 -53 -201zM4 0l549 1458h391l531 -1458h-322l-117 340h-602l-121 -340h-309zM604 1858h270l234 -299h-234l-135 176l-135 -176h-233z" />
    <glyph glyph-name="Atilde" unicode="&#xc3;" horiz-adv-x="1478" 
d="M512 565h451l-162 459q-41 113 -58 201h-10q-17 -104 -53 -201zM4 0l549 1458h391l531 -1458h-322l-117 340h-602l-121 -340h-309zM498 1579h-133q29 137 80 192.5t143 55.5q52 0 151.5 -38t145.5 -38q76 0 96 86h133q-29 -137 -80 -192.5t-143 -55.5q-52 0 -151.5 38
t-145.5 38q-76 0 -96 -86z" />
    <glyph glyph-name="Adieresis" unicode="&#xc4;" horiz-adv-x="1478" 
d="M512 565h451l-162 459q-41 113 -58 201h-10q-17 -104 -53 -201zM4 0l549 1458h391l531 -1458h-322l-117 340h-602l-121 -340h-309zM809 1794h295v-219h-295v219zM375 1794h295v-219h-295v219z" />
    <glyph glyph-name="Aring" unicode="&#xc5;" horiz-adv-x="1478" 
d="M512 565h451l-162 459q-41 113 -58 201h-10q-17 -104 -53 -201zM4 0l549 1458h391l531 -1458h-322l-117 340h-602l-121 -340h-309zM524 1755q0 89 63 152t152 63t152 -63t63 -152t-63 -152t-152 -63t-152 63t-63 152zM627 1755q0 -46 33 -79.5t79 -33.5t79.5 33.5
t33.5 79.5t-33.5 79.5t-79.5 33.5t-79 -33.5t-33 -79.5z" />
    <glyph glyph-name="AE" unicode="&#xc6;" horiz-adv-x="1972" 
d="M1016 0v352h-494l-186 -352h-328l803 1458h1034v-233h-534v-357h504v-233h-504v-402h563v-233h-858zM1016 578v671h-23l-356 -671h379z" />
    <glyph glyph-name="Ccedilla" unicode="&#xc7;" horiz-adv-x="1402" 
d="M1315 1079l-285 -59q-11 105 -82 172.5t-176 67.5q-169 0 -264.5 -131t-95.5 -400q0 -270 86.5 -400t242.5 -130q73 0 131 25.5t92 66.5t53.5 82.5t26.5 83.5l287 -64q-3 -20 -10.5 -45t-26.5 -66.5t-45 -79.5t-70.5 -80t-99.5 -74t-135 -55t-174 -28l-63 -94
q42 10 79 10q92 0 134.5 -48.5t42.5 -104.5q0 -20 -5.5 -41.5t-22 -48.5t-42.5 -48t-71 -35t-103 -14q-99 0 -246 51l37 89q47 -17 66 -23.5t48.5 -12t61.5 -5.5q42 0 73.5 22t31.5 57q0 38 -24.5 61t-64.5 23q-49 0 -90 -18l-45 33l99 147q-268 21 -423 218t-155 546
q0 185 50 330.5t141 240t216 144t277 49.5q221 0 356.5 -108.5t186.5 -305.5z" />
    <glyph glyph-name="Egrave" unicode="&#xc8;" horiz-adv-x="1214" 
d="M150 0v1458h946v-233h-639v-357h604v-233h-604v-402h659v-233h-966zM604 1858l203 -299h-213l-326 299h336z" />
    <glyph glyph-name="Eacute" unicode="&#xc9;" horiz-adv-x="1214" 
d="M150 0v1458h946v-233h-639v-357h604v-233h-604v-402h659v-233h-966zM410 1559l202 299h336l-325 -299h-213z" />
    <glyph glyph-name="Ecircumflex" unicode="&#xca;" horiz-adv-x="1214" 
d="M150 0v1458h946v-233h-639v-357h604v-233h-604v-402h659v-233h-966zM473 1858h270l234 -299h-234l-135 176l-135 -176h-233z" />
    <glyph glyph-name="Edieresis" unicode="&#xcb;" horiz-adv-x="1214" 
d="M150 0v1458h946v-233h-639v-357h604v-233h-604v-402h659v-233h-966zM678 1794h295v-219h-295v219zM244 1794h295v-219h-295v219z" />
    <glyph glyph-name="Igrave" unicode="&#xcc;" horiz-adv-x="606" 
d="M150 0v1458h307v-1458h-307zM299 1888l203 -299h-213l-326 299h336z" />
    <glyph glyph-name="Iacute" unicode="&#xcd;" horiz-adv-x="606" 
d="M150 0v1458h307v-1458h-307zM104 1559l203 299h336l-326 -299h-213z" />
    <glyph glyph-name="Icircumflex" unicode="&#xce;" horiz-adv-x="606" 
d="M150 0v1458h307v-1458h-307zM168 1858h270l234 -299h-234l-135 176l-135 -176h-234z" />
    <glyph glyph-name="Idieresis" unicode="&#xcf;" horiz-adv-x="606" 
d="M150 0v1458h307v-1458h-307zM373 1825h295v-219h-295v219zM-61 1825h294v-219h-294v219z" />
    <glyph glyph-name="Eth" unicode="&#xd0;" horiz-adv-x="1478" 
d="M150 0v711h-150v133h150v614h577q90 0 176.5 -21t176.5 -74t157 -133.5t109.5 -210.5t42.5 -294q0 -358 -201.5 -541.5t-558.5 -183.5h-479zM457 711v-478h184q105 0 186.5 38.5t132.5 106.5t77.5 157.5t27.5 195.5q-1 100 -24 185.5t-71 156.5t-131 111.5t-194 40.5
h-188v-381h319v-133h-319z" />
    <glyph glyph-name="Ntilde" unicode="&#xd1;" horiz-adv-x="1554" 
d="M150 0v1458h395l389 -706q64 -117 119 -241t69 -192h15q-15 139 -15 402v737h283v-1458h-406l-444 834q-84 154 -125 305h-12q14 -233 14 -338v-801h-282zM537 1610h-134q29 137 80.5 192.5t143.5 55.5q52 0 151.5 -38t145.5 -38q76 0 96 86h133q-29 -137 -80 -192.5
t-143 -55.5q-52 0 -151.5 38t-145.5 38q-76 0 -96 -86z" />
    <glyph glyph-name="Ograve" unicode="&#xd2;" horiz-adv-x="1515" 
d="M758 199q169 0 264.5 130.5t95.5 399.5t-95.5 400t-264.5 131q-170 0 -265.5 -131t-95.5 -400t95.5 -399.5t265.5 -130.5zM758 -35q-152 0 -277 49.5t-216 144t-141 240t-50 330.5t50 330.5t141 240t216 144t277 49.5t277 -49.5t216 -144t141 -240t50 -330.5t-50 -330.5
t-141 -240t-216 -144t-277 -49.5zM754 1888l202 -299h-213l-325 299h336z" />
    <glyph glyph-name="Oacute" unicode="&#xd3;" horiz-adv-x="1515" 
d="M758 199q169 0 264.5 130.5t95.5 399.5t-95.5 400t-264.5 131q-170 0 -265.5 -131t-95.5 -400t95.5 -399.5t265.5 -130.5zM758 -35q-152 0 -277 49.5t-216 144t-141 240t-50 330.5t50 330.5t141 240t216 144t277 49.5t277 -49.5t216 -144t141 -240t50 -330.5t-50 -330.5
t-141 -240t-216 -144t-277 -49.5zM559 1589l203 299h336l-326 -299h-213z" />
    <glyph glyph-name="Ocircumflex" unicode="&#xd4;" horiz-adv-x="1515" 
d="M758 199q169 0 264.5 130.5t95.5 399.5t-95.5 400t-264.5 131q-170 0 -265.5 -131t-95.5 -400t95.5 -399.5t265.5 -130.5zM758 -35q-152 0 -277 49.5t-216 144t-141 240t-50 330.5t50 330.5t141 240t216 144t277 49.5t277 -49.5t216 -144t141 -240t50 -330.5t-50 -330.5
t-141 -240t-216 -144t-277 -49.5zM623 1888h270l233 -299h-233l-135 176l-135 -176h-234z" />
    <glyph glyph-name="Otilde" unicode="&#xd5;" horiz-adv-x="1515" 
d="M758 199q169 0 264.5 130.5t95.5 399.5t-95.5 400t-264.5 131q-170 0 -265.5 -131t-95.5 -400t95.5 -399.5t265.5 -130.5zM758 -35q-152 0 -277 49.5t-216 144t-141 240t-50 330.5t50 330.5t141 240t216 144t277 49.5t277 -49.5t216 -144t141 -240t50 -330.5t-50 -330.5
t-141 -240t-216 -144t-277 -49.5zM516 1610h-133q29 137 80 192.5t143 55.5q52 0 151.5 -38t145.5 -38q76 0 96 86h134q-29 -137 -80.5 -192.5t-143.5 -55.5q-52 0 -151.5 38t-145.5 38q-76 0 -96 -86z" />
    <glyph glyph-name="Odieresis" unicode="&#xd6;" horiz-adv-x="1515" 
d="M758 199q169 0 264.5 130.5t95.5 399.5t-95.5 400t-264.5 131q-170 0 -265.5 -131t-95.5 -400t95.5 -399.5t265.5 -130.5zM758 -35q-152 0 -277 49.5t-216 144t-141 240t-50 330.5t50 330.5t141 240t216 144t277 49.5t277 -49.5t216 -144t141 -240t50 -330.5t-50 -330.5
t-141 -240t-216 -144t-277 -49.5zM827 1825h295v-219h-295v219zM393 1825h295v-219h-295v219z" />
    <glyph glyph-name="multiply" unicode="&#xd7;" horiz-adv-x="1228" 
d="M477 518l-340 340l137 137l340 -342l340 342l138 -137l-342 -340l342 -340l-138 -137l-340 342l-340 -342l-137 137z" />
    <glyph glyph-name="Oslash" unicode="&#xd8;" horiz-adv-x="1515" 
d="M1081 1004l-592 -668q92 -137 269 -137q169 0 264.5 130.5t95.5 399.5q0 165 -37 275zM176 -18l-88 77l133 152q-147 195 -147 518q0 185 50 330.5t141 240t216 144t277 49.5q281 0 456 -160l125 142l88 -78l-133 -150q148 -197 148 -518q0 -185 -50 -330.5t-141 -240
t-216 -144t-277 -49.5q-278 0 -455 160zM436 453l590 667q-92 140 -268 140q-170 0 -265.5 -131t-95.5 -400q0 -172 39 -276z" />
    <glyph glyph-name="Ugrave" unicode="&#xd9;" horiz-adv-x="1441" 
d="M1012 1458h295v-885q0 -301 -152 -454.5t-455 -153.5q-275 0 -420 155t-145 453v885h295v-885q0 -179 67.5 -276.5t223.5 -97.5t223.5 97.5t67.5 276.5v885zM717 1888l203 -299h-213l-326 299h336z" />
    <glyph glyph-name="Uacute" unicode="&#xda;" horiz-adv-x="1441" 
d="M1012 1458h295v-885q0 -301 -152 -454.5t-455 -153.5q-275 0 -420 155t-145 453v885h295v-885q0 -179 67.5 -276.5t223.5 -97.5t223.5 97.5t67.5 276.5v885zM522 1589l203 299h336l-326 -299h-213z" />
    <glyph glyph-name="Ucircumflex" unicode="&#xdb;" horiz-adv-x="1441" 
d="M1012 1458h295v-885q0 -301 -152 -454.5t-455 -153.5q-275 0 -420 155t-145 453v885h295v-885q0 -179 67.5 -276.5t223.5 -97.5t223.5 97.5t67.5 276.5v885zM586 1888h270l234 -299h-234l-135 176l-135 -176h-234z" />
    <glyph glyph-name="Udieresis" unicode="&#xdc;" horiz-adv-x="1441" 
d="M1012 1458h295v-885q0 -301 -152 -454.5t-455 -153.5q-275 0 -420 155t-145 453v885h295v-885q0 -179 67.5 -276.5t223.5 -97.5t223.5 97.5t67.5 276.5v885zM791 1825h294v-219h-294v219zM356 1825h295v-219h-295v219z" />
    <glyph glyph-name="Yacute" unicode="&#xdd;" horiz-adv-x="1366" 
d="M526 0v563l-524 895h358l256 -469q30 -54 72 -170h6q27 89 76 178l250 461h344l-530 -895v-563h-308zM485 1589l203 299h336l-326 -299h-213z" />
    <glyph glyph-name="Thorn" unicode="&#xde;" horiz-adv-x="1251" 
d="M123 0v1458h307v-198h272q127 0 224 -35t155 -97t86.5 -141t28.5 -174q0 -99 -28 -178.5t-75 -132t-111 -88t-133 -51t-144 -15.5h-275v-348h-307zM430 1034v-461h242q92 0 160.5 66t68.5 176q0 100 -48.5 159.5t-152.5 59.5h-270z" />
    <glyph glyph-name="germandbls" unicode="&#xdf;" horiz-adv-x="1290" 
d="M156 0v1122q0 75 13 140t49 132t93 114.5t152.5 77.5t220.5 30q90 0 163.5 -23.5t122.5 -63t82 -92t47.5 -108.5t14.5 -115q0 -138 -73 -231t-195 -117v-12q172 -20 265 -131.5t93 -290.5q0 -108 -33.5 -196t-92 -144.5t-135.5 -86.5t-165 -30q-126 0 -227 31l45 215
q66 -28 111 -28q55 0 98 22.5t67.5 60.5t37 83.5t12.5 95.5q0 64 -12.5 112.5t-42 90t-85 63.5t-135.5 22q-27 0 -51 -6v209q52 0 92 9t77 32.5t57 69.5t20 114q0 30 -4.5 58.5t-17 61t-33 56t-56.5 39t-82 15.5q-57 0 -97.5 -20.5t-61.5 -56t-30 -75t-9 -86.5v-1163h-295z
" />
    <glyph glyph-name="agrave" unicode="&#xe0;" horiz-adv-x="1175" 
d="M782 0l-10 184q-167 -209 -377 -209q-158 0 -248 101.5t-90 269.5q0 92 29.5 164t81 120t126 79.5t160.5 45t189 13.5h129v94q0 84 -48 137.5t-149 53.5q-41 0 -72 -9.5t-51.5 -23.5t-39 -41t-28.5 -50t-26 -63l-258 72q30 71 65.5 122.5t91 96.5t138.5 68.5t191 23.5
q104 0 187 -24t147.5 -75t99.5 -138t35 -205v-598q0 -81 10 -209h-283zM772 344v248h-88q-181 0 -262.5 -55t-81.5 -166q0 -78 41 -124t111 -46q80 0 126.5 25t153.5 118zM584 1655l202 -299h-213l-325 299h336z" />
    <glyph glyph-name="aacute" unicode="&#xe1;" horiz-adv-x="1175" 
d="M782 0l-10 184q-167 -209 -377 -209q-158 0 -248 101.5t-90 269.5q0 92 29.5 164t81 120t126 79.5t160.5 45t189 13.5h129v94q0 84 -48 137.5t-149 53.5q-41 0 -72 -9.5t-51.5 -23.5t-39 -41t-28.5 -50t-26 -63l-258 72q30 71 65.5 122.5t91 96.5t138.5 68.5t191 23.5
q104 0 187 -24t147.5 -75t99.5 -138t35 -205v-598q0 -81 10 -209h-283zM772 344v248h-88q-181 0 -262.5 -55t-81.5 -166q0 -78 41 -124t111 -46q80 0 126.5 25t153.5 118zM389 1356l203 299h336l-326 -299h-213z" />
    <glyph glyph-name="acircumflex" unicode="&#xe2;" horiz-adv-x="1175" 
d="M782 0l-10 184q-167 -209 -377 -209q-158 0 -248 101.5t-90 269.5q0 92 29.5 164t81 120t126 79.5t160.5 45t189 13.5h129v94q0 84 -48 137.5t-149 53.5q-41 0 -72 -9.5t-51.5 -23.5t-39 -41t-28.5 -50t-26 -63l-258 72q30 71 65.5 122.5t91 96.5t138.5 68.5t191 23.5
q104 0 187 -24t147.5 -75t99.5 -138t35 -205v-598q0 -81 10 -209h-283zM772 344v248h-88q-181 0 -262.5 -55t-81.5 -166q0 -78 41 -124t111 -46q80 0 126.5 25t153.5 118zM453 1655h270l233 -299h-233l-135 176l-135 -176h-234z" />
    <glyph glyph-name="atilde" unicode="&#xe3;" horiz-adv-x="1175" 
d="M782 0l-10 184q-167 -209 -377 -209q-158 0 -248 101.5t-90 269.5q0 92 29.5 164t81 120t126 79.5t160.5 45t189 13.5h129v94q0 84 -48 137.5t-149 53.5q-41 0 -72 -9.5t-51.5 -23.5t-39 -41t-28.5 -50t-26 -63l-258 72q30 71 65.5 122.5t91 96.5t138.5 68.5t191 23.5
q104 0 187 -24t147.5 -75t99.5 -138t35 -205v-598q0 -81 10 -209h-283zM772 344v248h-88q-181 0 -262.5 -55t-81.5 -166q0 -78 41 -124t111 -46q80 0 126.5 25t153.5 118zM346 1376h-133q29 137 80 192.5t143 55.5q52 0 151.5 -38t145.5 -38q76 0 96 86h134
q-29 -137 -80.5 -192.5t-143.5 -55.5q-52 0 -151.5 38t-145.5 38q-76 0 -96 -86z" />
    <glyph glyph-name="adieresis" unicode="&#xe4;" horiz-adv-x="1175" 
d="M782 0l-10 184q-167 -209 -377 -209q-158 0 -248 101.5t-90 269.5q0 92 29.5 164t81 120t126 79.5t160.5 45t189 13.5h129v94q0 84 -48 137.5t-149 53.5q-41 0 -72 -9.5t-51.5 -23.5t-39 -41t-28.5 -50t-26 -63l-258 72q30 71 65.5 122.5t91 96.5t138.5 68.5t191 23.5
q104 0 187 -24t147.5 -75t99.5 -138t35 -205v-598q0 -81 10 -209h-283zM772 344v248h-88q-181 0 -262.5 -55t-81.5 -166q0 -78 41 -124t111 -46q80 0 126.5 25t153.5 118zM657 1591h295v-219h-295v219zM223 1591h295v-219h-295v219z" />
    <glyph glyph-name="aring" unicode="&#xe5;" horiz-adv-x="1175" 
d="M782 0l-10 184q-167 -209 -377 -209q-158 0 -248 101.5t-90 269.5q0 92 29.5 164t81 120t126 79.5t160.5 45t189 13.5h129v94q0 84 -48 137.5t-149 53.5q-41 0 -72 -9.5t-51.5 -23.5t-39 -41t-28.5 -50t-26 -63l-258 72q30 71 65.5 122.5t91 96.5t138.5 68.5t191 23.5
q104 0 187 -24t147.5 -75t99.5 -138t35 -205v-598q0 -81 10 -209h-283zM772 344v248h-88q-181 0 -262.5 -55t-81.5 -166q0 -78 41 -124t111 -46q80 0 126.5 25t153.5 118zM373 1522q0 89 63 152t152 63t152 -63t63 -152t-63 -152t-152 -63t-152 63t-63 152zM475 1522
q0 -46 33.5 -79.5t79.5 -33.5t79 33.5t33 79.5t-33 79t-79 33t-79.5 -33t-33.5 -79z" />
    <glyph glyph-name="ae" unicode="&#xe6;" horiz-adv-x="1896" 
d="M788 367v208h-135q-141 0 -221 -55t-80 -149q0 -86 52.5 -125t119.5 -37q53 1 109.5 31t90.5 60.5t64 66.5zM375 860l-262 80q14 43 36.5 83.5t62 82.5t89.5 73t124 50.5t161 19.5q262 0 366 -170q37 45 65.5 72t72 52t102 35.5t139.5 10.5q125 0 222.5 -50.5t157 -136.5
t90 -193.5t30.5 -227.5v-94h-760q0 -101 19.5 -174t54.5 -113t75.5 -58t88.5 -18q166 0 231 187l256 -84q-140 -312 -475 -312q-79 0 -144.5 14t-107 32t-82.5 52t-61.5 58t-53.5 66q-96 -113 -219 -167.5t-225 -54.5q-92 0 -165 32t-117 85.5t-66.5 118.5t-22.5 135
q0 65 21.5 124t69 113t118 94t175.5 63.5t233 23.5h114v70q0 206 -202 206q-46 0 -84.5 -18t-63.5 -46.5t-40.5 -57.5t-22.5 -58zM1071 743h465q0 151 -65.5 224t-163.5 73q-52 0 -93.5 -16.5t-67.5 -43.5t-43.5 -66t-24.5 -81t-7 -90z" />
    <glyph glyph-name="ccedilla" unicode="&#xe7;" horiz-adv-x="1099" 
d="M821 401l266 -67q-14 -38 -24.5 -63.5t-31 -65t-41.5 -66.5t-55 -58t-73 -51t-93.5 -35.5t-117.5 -19.5l-69 -104q42 10 80 10q49 0 85 -15t55 -39.5t27.5 -49.5t8.5 -49q0 -20 -5.5 -41.5t-22 -48.5t-42.5 -48t-71 -35t-103 -14q-99 0 -246 51l37 89q47 -17 66 -23.5
t48.5 -12t61.5 -5.5q42 0 73.5 22t31.5 57q0 38 -24 61t-64 23q-50 0 -91 -18l-45 33l105 157q-101 10 -181 51t-132 101t-86 140t-48 164t-14 177q0 108 18.5 202t59.5 175.5t102 139.5t150.5 91t201.5 33q89 0 165 -26t126.5 -66t87.5 -90.5t55 -95.5t23 -84l-274 -74
q-2 96 -50 161.5t-139 65.5q-115 0 -167 -101t-52 -308q0 -105 9.5 -180t33 -138.5t68.5 -96t112 -32.5q49 0 88.5 21.5t63 56t36.5 69.5t17 70z" />
    <glyph glyph-name="egrave" unicode="&#xe8;" 
d="M852 367l250 -82q-126 -310 -475 -310q-259 0 -410 171.5t-151 469.5q0 287 149 460t414 173q126 0 226.5 -48t163 -131t95.5 -190.5t33 -230.5v-110h-787q0 -61 12 -118t39 -113t81 -90t129 -34q91 0 152 57.5t79 125.5zM360 735h492q0 147 -62.5 227.5t-171.5 77.5
q-65 1 -114.5 -23.5t-79 -69t-45 -97t-19.5 -115.5zM602 1655l203 -299h-213l-326 299h336z" />
    <glyph glyph-name="eacute" unicode="&#xe9;" 
d="M852 367l250 -82q-126 -310 -475 -310q-259 0 -410 171.5t-151 469.5q0 287 149 460t414 173q126 0 226.5 -48t163 -131t95.5 -190.5t33 -230.5v-110h-787q0 -61 12 -118t39 -113t81 -90t129 -34q91 0 152 57.5t79 125.5zM360 735h492q0 147 -62.5 227.5t-171.5 77.5
q-65 1 -114.5 -23.5t-79 -69t-45 -97t-19.5 -115.5zM408 1356l202 299h336l-325 -299h-213z" />
    <glyph glyph-name="ecircumflex" unicode="&#xea;" 
d="M852 367l250 -82q-126 -310 -475 -310q-259 0 -410 171.5t-151 469.5q0 287 149 460t414 173q126 0 226.5 -48t163 -131t95.5 -190.5t33 -230.5v-110h-787q0 -61 12 -118t39 -113t81 -90t129 -34q91 0 152 57.5t79 125.5zM360 735h492q0 147 -62.5 227.5t-171.5 77.5
q-65 1 -114.5 -23.5t-79 -69t-45 -97t-19.5 -115.5zM471 1655h270l234 -299h-234l-135 176l-135 -176h-233z" />
    <glyph glyph-name="edieresis" unicode="&#xeb;" 
d="M852 367l250 -82q-126 -310 -475 -310q-259 0 -410 171.5t-151 469.5q0 287 149 460t414 173q126 0 226.5 -48t163 -131t95.5 -190.5t33 -230.5v-110h-787q0 -61 12 -118t39 -113t81 -90t129 -34q91 0 152 57.5t79 125.5zM360 735h492q0 147 -62.5 227.5t-171.5 77.5
q-65 1 -114.5 -23.5t-79 -69t-45 -97t-19.5 -115.5zM676 1591h295v-219h-295v219zM242 1591h295v-219h-295v219z" />
    <glyph glyph-name="igrave" unicode="&#xec;" horiz-adv-x="569" 
d="M137 0v1225h295v-1225h-295zM281 1655l202 -299h-213l-325 299h336z" />
    <glyph glyph-name="iacute" unicode="&#xed;" horiz-adv-x="569" 
d="M137 0v1225h295v-1225h-295zM86 1356l203 299h336l-326 -299h-213z" />
    <glyph glyph-name="icircumflex" unicode="&#xee;" horiz-adv-x="569" 
d="M137 0v1225h295v-1225h-295zM150 1655h270l233 -299h-233l-135 176l-135 -176h-234z" />
    <glyph glyph-name="idieresis" unicode="&#xef;" horiz-adv-x="569" 
d="M137 0v1225h295v-1225h-295zM354 1591h295v-219h-295v219zM-80 1591h295v-219h-295v219z" />
    <glyph glyph-name="eth" unicode="&#xf0;" horiz-adv-x="1253" 
d="M627 184q254 0 254 428q0 159 -71.5 256t-172.5 97q-131 0 -197.5 -96.5t-66.5 -256.5q0 -428 254 -428zM324 1190l-80 102l188 94q-93 75 -156 107l207 143q97 -64 185 -133l211 105l79 -103l-184 -92q414 -376 414 -797q0 -298 -151 -469.5t-410 -171.5t-410 171.5
t-151 469.5q0 97 34.5 191.5t95.5 169.5t154.5 121.5t202.5 46.5t184 -55l4 4q-80 96 -202 202z" />
    <glyph glyph-name="ntilde" unicode="&#xf1;" horiz-adv-x="1290" 
d="M852 0v825q0 85 -40.5 129.5t-113.5 44.5q-65 0 -117 -33.5t-143 -119.5v-846h-295v1225h295v-183q44 43 82 73.5t91 64t113.5 51.5t123.5 18q86 0 147 -30t93 -83.5t45.5 -113.5t13.5 -133v-889h-295zM403 1376h-133q29 137 80.5 192.5t143.5 55.5q52 0 151.5 -38
t145.5 -38q76 0 96 86h133q-29 -137 -80 -192.5t-143 -55.5q-52 0 -151.5 38t-145.5 38q-77 0 -97 -86z" />
    <glyph glyph-name="ograve" unicode="&#xf2;" horiz-adv-x="1253" 
d="M373 612q0 -428 254 -428t254 428q0 219 -66.5 323.5t-187.5 104.5t-187.5 -104.5t-66.5 -323.5zM66 616q0 283 153 458t408 175q176 0 303.5 -80.5t192.5 -222.5t65 -330q0 -295 -155.5 -468t-405.5 -173q-259 0 -410 171.5t-151 469.5zM623 1655l202 -299h-213
l-325 299h336z" />
    <glyph glyph-name="oacute" unicode="&#xf3;" horiz-adv-x="1253" 
d="M373 612q0 -428 254 -428t254 428q0 219 -66.5 323.5t-187.5 104.5t-187.5 -104.5t-66.5 -323.5zM66 616q0 283 153 458t408 175q176 0 303.5 -80.5t192.5 -222.5t65 -330q0 -295 -155.5 -468t-405.5 -173q-259 0 -410 171.5t-151 469.5zM428 1356l203 299h336l-326 -299
h-213z" />
    <glyph glyph-name="ocircumflex" unicode="&#xf4;" horiz-adv-x="1253" 
d="M373 612q0 -428 254 -428t254 428q0 219 -66.5 323.5t-187.5 104.5t-187.5 -104.5t-66.5 -323.5zM66 616q0 283 153 458t408 175q176 0 303.5 -80.5t192.5 -222.5t65 -330q0 -295 -155.5 -468t-405.5 -173q-259 0 -410 171.5t-151 469.5zM492 1655h270l233 -299h-233
l-135 176l-135 -176h-234z" />
    <glyph glyph-name="otilde" unicode="&#xf5;" horiz-adv-x="1253" 
d="M373 612q0 -428 254 -428t254 428q0 219 -66.5 323.5t-187.5 104.5t-187.5 -104.5t-66.5 -323.5zM66 616q0 283 153 458t408 175q176 0 303.5 -80.5t192.5 -222.5t65 -330q0 -295 -155.5 -468t-405.5 -173q-259 0 -410 171.5t-151 469.5zM385 1376h-133q29 137 80 192.5
t143 55.5q52 0 151.5 -38t145.5 -38q76 0 96 86h133q-29 -137 -80 -192.5t-143 -55.5q-52 0 -151.5 38t-145.5 38q-76 0 -96 -86z" />
    <glyph glyph-name="odieresis" unicode="&#xf6;" horiz-adv-x="1253" 
d="M373 612q0 -428 254 -428t254 428q0 219 -66.5 323.5t-187.5 104.5t-187.5 -104.5t-66.5 -323.5zM66 616q0 283 153 458t408 175q176 0 303.5 -80.5t192.5 -222.5t65 -330q0 -295 -155.5 -468t-405.5 -173q-259 0 -410 171.5t-151 469.5zM696 1591h295v-219h-295v219z
M262 1591h295v-219h-295v219z" />
    <glyph glyph-name="divide" unicode="&#xf7;" horiz-adv-x="1228" 
d="M1130 420h-1032v196h1032v-196zM451 942q0 68 49 117t116 49q65 0 114.5 -50t49.5 -116q0 -62 -50 -113t-112 -51q-69 0 -118 49t-49 115zM451 94q0 67 48.5 115.5t116.5 48.5q65 0 114.5 -49t49.5 -115q0 -62 -50 -114t-112 -52q-68 0 -117.5 49.5t-49.5 116.5z" />
    <glyph glyph-name="oslash" unicode="&#xf8;" horiz-adv-x="1253" 
d="M389 426l432 494q-63 123 -194 120q-121 2 -187.5 -103.5t-66.5 -324.5q0 -108 16 -186zM864 799l-432 -496q61 -119 195 -119q254 0 254 428q0 100 -17 187zM49 39l133 151q-116 169 -116 426q0 188 65 330t192.5 222.5t303.5 80.5q223 0 368 -129l125 140l84 -74
l-133 -150q117 -163 117 -420q0 -298 -151 -469.5t-410 -171.5q-225 0 -369 129l-125 -139z" />
    <glyph glyph-name="ugrave" unicode="&#xf9;" horiz-adv-x="1251" 
d="M1120 1225v-1225h-295v186q-94 -94 -192 -152.5t-217 -58.5q-65 0 -115.5 20.5t-82 54.5t-51.5 81.5t-28 97.5t-8 107v889h295v-826q0 -84 38 -129t101 -45q34 0 63 9t64.5 34.5t58 45.5t74.5 69v842h295zM623 1655l202 -299h-213l-325 299h336z" />
    <glyph glyph-name="uacute" unicode="&#xfa;" horiz-adv-x="1251" 
d="M1120 1225v-1225h-295v186q-94 -94 -192 -152.5t-217 -58.5q-65 0 -115.5 20.5t-82 54.5t-51.5 81.5t-28 97.5t-8 107v889h295v-826q0 -84 38 -129t101 -45q34 0 63 9t64.5 34.5t58 45.5t74.5 69v842h295zM428 1356l203 299h336l-326 -299h-213z" />
    <glyph glyph-name="ucircumflex" unicode="&#xfb;" horiz-adv-x="1251" 
d="M1120 1225v-1225h-295v186q-94 -94 -192 -152.5t-217 -58.5q-65 0 -115.5 20.5t-82 54.5t-51.5 81.5t-28 97.5t-8 107v889h295v-826q0 -84 38 -129t101 -45q34 0 63 9t64.5 34.5t58 45.5t74.5 69v842h295zM492 1655h270l233 -299h-233l-135 176l-135 -176h-234z" />
    <glyph glyph-name="udieresis" unicode="&#xfc;" horiz-adv-x="1251" 
d="M1120 1225v-1225h-295v186q-94 -94 -192 -152.5t-217 -58.5q-65 0 -115.5 20.5t-82 54.5t-51.5 81.5t-28 97.5t-8 107v889h295v-826q0 -84 38 -129t101 -45q34 0 63 9t64.5 34.5t58 45.5t74.5 69v842h295zM696 1591h295v-219h-295v219zM262 1591h295v-219h-295v219z" />
    <glyph glyph-name="yacute" unicode="&#xfd;" horiz-adv-x="1138" 
d="M102 -385l15 227q81 -22 121 -22q27 0 45.5 4.5t45 22.5t53 61t52.5 112l-430 1205h318l188 -582q11 -33 20 -70.5t14.5 -66t14.5 -79t16 -85.5h13q14 145 63 293l189 590h295l-445 -1309q-58 -173 -142 -251.5t-235 -78.5q-105 0 -211 29zM371 1356l202 299h336
l-325 -299h-213z" />
    <glyph glyph-name="thorn" unicode="&#xfe;" horiz-adv-x="1290" 
d="M143 -399v1990h295v-510q40 35 53.5 47t47.5 38.5t53.5 36t51 23.5t63.5 18.5t69 4.5q100 0 177.5 -41t124 -104t76 -149.5t40 -168t10.5 -168.5q0 -316 -107.5 -479.5t-318.5 -163.5q-95 0 -177 40t-163 130v-544h-295zM438 887v-549q100 -137 236 -137q117 0 173 110.5
t56 304.5q0 408 -241 408q-123 0 -224 -137z" />
    <glyph glyph-name="ydieresis" unicode="&#xff;" horiz-adv-x="1138" 
d="M102 -385l15 227q81 -22 121 -22q27 0 45.5 4.5t45 22.5t53 61t52.5 112l-430 1205h318l188 -582q11 -33 20 -70.5t14.5 -66t14.5 -79t16 -85.5h13q14 145 63 293l189 590h295l-445 -1309q-58 -173 -142 -251.5t-235 -78.5q-105 0 -211 29zM639 1591h295v-219h-295v219z
M205 1591h295v-219h-295v219z" />
    <glyph glyph-name="dotlessi" unicode="&#x131;" horiz-adv-x="569" 
d="M137 0v1225h295v-1225h-295z" />
    <glyph glyph-name="Lslash" unicode="&#x141;" horiz-adv-x="1062" 
d="M150 0v508l-138 -90v153l138 91v796h307v-596l381 250v-158l-381 -247v-465h579v-242h-886z" />
    <glyph glyph-name="lslash" unicode="&#x142;" horiz-adv-x="569" 
d="M137 0v647l-133 -98v151l133 99v792h295v-577l133 98v-151l-133 -99v-862h-295z" />
    <glyph glyph-name="OE" unicode="&#x152;" horiz-adv-x="1933" 
d="M983 246v983q-62 4 -104 4q-216 0 -342.5 -133.5t-126.5 -349.5q0 -117 29 -207.5t75.5 -146t112 -91.5t132 -49.5t142.5 -13.5q28 0 82 4zM1772 868v-233h-494v-402h557v-233h-690q-38 0 -144 -4t-163 -4q-129 0 -242 28.5t-207 88t-161 146.5t-104.5 209.5t-37.5 270.5
q0 149 40 271.5t109 206.5t165 142t205.5 84.5t232.5 26.5q62 0 194 -4q136 -4 174 -4h600v-233h-528v-357h494z" />
    <glyph glyph-name="oe" unicode="&#x153;" horiz-adv-x="2009" 
d="M373 612q0 -428 254 -428t254 428q0 219 -66.5 323.5t-187.5 104.5t-187.5 -104.5t-66.5 -323.5zM1647 371l256 -84q-140 -312 -476 -312q-76 0 -138.5 13t-100.5 29.5t-75.5 47t-53 49t-41.5 52.5q-27 -35 -46 -56.5t-54.5 -50.5t-72.5 -45t-93.5 -27.5t-124.5 -11.5
q-259 0 -410 171.5t-151 469.5q0 188 65 330t192.5 222.5t303.5 80.5q80 0 143.5 -14t109.5 -41t78 -57.5t62 -71.5q74 91 171.5 137.5t252.5 46.5q125 0 222.5 -50.5t157 -136.5t90 -193.5t30.5 -227.5v-94h-768q0 -101 19.5 -174t54 -113t75 -58t88.5 -18q169 0 234 187z
M1176 743h473q0 151 -66 224t-166 73q-67 0 -115.5 -24t-75 -67t-38.5 -94t-12 -112z" />
    <glyph glyph-name="Scaron" unicode="&#x160;" horiz-adv-x="1251" 
d="M1133 1194l-279 -92q-8 26 -14.5 41.5t-23.5 42.5t-37.5 42t-56.5 27.5t-81 12.5q-115 0 -172 -52t-57 -122q0 -56 26 -88t99 -62l319 -133q159 -66 233 -156.5t74 -232.5q0 -93 -36.5 -175t-105.5 -145.5t-177.5 -100t-243.5 -36.5q-97 0 -180.5 21.5t-141.5 55.5
t-101.5 80t-68 92t-34.5 93l276 105q6 -40 21.5 -74.5t44.5 -67.5t80 -52t118 -19q110 0 176 52t66 140q0 59 -40 103t-136 81l-195 76q-64 24 -113.5 48t-102 60.5t-87 77t-56.5 98t-22 124.5q0 64 17 123.5t57 116.5t99.5 99.5t151.5 68.5t206 26q96 0 169.5 -13.5
t139 -46t113 -92t76.5 -147.5zM762 1589h-270l-234 299h234l135 -176l135 176h233z" />
    <glyph glyph-name="scaron" unicode="&#x161;" horiz-adv-x="1062" 
d="M987 965l-246 -76q-7 24 -12.5 40t-21.5 42t-37 42t-58 28t-84 12q-66 0 -112.5 -35t-46.5 -103q0 -32 11.5 -55.5t35 -39t39 -22t43.5 -16.5l235 -77q277 -88 277 -334q0 -396 -523 -396q-90 0 -163.5 23t-118.5 56t-79 78t-49 81.5t-24 73.5l252 78q26 -91 77.5 -136
t147.5 -45q63 0 107 26.5t61 60t17 67.5q1 61 -34.5 91t-100.5 48l-189 60q-305 93 -305 340q0 96 36.5 169.5t99.5 116.5t140 64.5t166 21.5q101 0 182.5 -23t135.5 -64t88.5 -90t52.5 -107zM668 1356h-271l-233 299h233l135 -176l136 176h233z" />
    <glyph glyph-name="Ydieresis" unicode="&#x178;" horiz-adv-x="1366" 
d="M526 0v563l-524 895h358l256 -469q30 -54 72 -170h6q27 89 76 178l250 461h344l-530 -895v-563h-308zM754 1825h295v-219h-295v219zM319 1825h295v-219h-295v219z" />
    <glyph glyph-name="Zcaron" unicode="&#x17d;" horiz-adv-x="1175" 
d="M57 0v242l693 983h-672v233h1026v-246l-688 -979h700v-233h-1059zM723 1589h-270l-234 299h234l135 -176l135 176h233z" />
    <glyph glyph-name="zcaron" unicode="&#x17e;" horiz-adv-x="1062" 
d="M47 0v197l596 819h-571v209h923v-199l-598 -817h619v-209h-969zM668 1356h-271l-233 299h233l135 -176l136 176h233z" />
    <glyph glyph-name="florin" unicode="&#x192;" 
d="M326 125l139 600h-205l12 164h230l63 262q45 189 144 265.5t266 76.5q111 0 213 -57l-117 -172q-45 32 -102 32q-59 0 -88 -36t-45 -99l-68 -272h227l-12 -164h-254l-156 -651q-40 -167 -133.5 -264t-251.5 -97q-135 0 -221 58l105 176q56 -25 90 -25q33 0 58.5 12
t41 28.5t29 47.5t19.5 53t16 62z" />
    <glyph glyph-name="circumflex" unicode="&#x2c6;" horiz-adv-x="569" 
d="M150 1655h270l233 -299h-233l-135 176l-135 -176h-234z" />
    <glyph glyph-name="caron" unicode="&#x2c7;" horiz-adv-x="569" 
d="M420 1356h-270l-234 299h234l135 -176l135 176h233z" />
    <glyph glyph-name="uni02C9" unicode="&#x2c9;" horiz-adv-x="569" 
d="M-33 1583h635v-156h-635v156z" />
    <glyph glyph-name="breve" unicode="&#x2d8;" horiz-adv-x="569" 
d="M498 1655h133q-35 -299 -346 -299t-346 299h133q30 -81 77 -114.5t136 -33.5t136 33.5t77 114.5z" />
    <glyph glyph-name="dotaccent" unicode="&#x2d9;" horiz-adv-x="569" 
d="M137 1591h295v-219h-295v219z" />
    <glyph glyph-name="ring" unicode="&#x2da;" horiz-adv-x="569" 
d="M70 1573q0 89 63 152t152 63t152 -63t63 -152t-63 -152t-152 -63t-152 63t-63 152zM172 1573q0 -46 33.5 -79.5t79.5 -33.5t79 33.5t33 79.5t-33 79.5t-79 33.5t-79.5 -33.5t-33.5 -79.5z" />
    <glyph glyph-name="ogonek" unicode="&#x2db;" horiz-adv-x="569" 
d="M600 -264v-135q-129 -60 -231 -60q-93 0 -162.5 49.5t-69.5 137.5q0 78 52 141t167 143h158q-168 -117 -168 -215q0 -42 30.5 -70t86.5 -28q65 0 137 37z" />
    <glyph glyph-name="tilde" unicode="&#x2dc;" horiz-adv-x="569" 
d="M43 1376h-133q29 137 80 192.5t143 55.5q52 0 151.5 -38t145.5 -38q76 0 96 86h133q-29 -137 -80 -192.5t-143 -55.5q-52 0 -151.5 38t-145.5 38q-76 0 -96 -86z" />
    <glyph glyph-name="hungarumlaut" unicode="&#x2dd;" horiz-adv-x="569" 
d="M-141 1356l202 299h336l-325 -299h-213zM313 1356l203 299h336l-326 -299h-213z" />
    <glyph glyph-name="uni03A9" unicode="&#x3a9;" horiz-adv-x="1548" 
d="M389 199v6q-116 101 -194 255.5t-78 344.5q0 140 49 265t135 216.5t210 145t267 53.5q120 0 225.5 -38.5t181.5 -103.5t131 -151t82 -182t27 -195q0 -195 -79 -353.5t-197 -256.5v-6h307v-199h-563v147q122 76 202.5 232t80.5 387q0 135 -44.5 250t-137 190.5
t-216.5 75.5q-122 0 -215.5 -68.5t-143.5 -188t-50 -269.5q0 -215 81.5 -377t200.5 -232v-147h-563v199h301z" />
    <glyph glyph-name="uni03BC" unicode="&#x3bc;" horiz-adv-x="1251" 
d="M131 -399v1624h295v-795q0 -64 11 -106.5t33 -63t46.5 -28t58.5 -7.5q21 0 38.5 2.5t36 12t30.5 15.5t33.5 24.5t31.5 27.5t38.5 36.5t41.5 39.5v842h295v-1225h-295v162h-4q-19 -43 -37 -72t-44.5 -55t-63.5 -38.5t-84 -12.5q-104 0 -162 90h-4v-473h-295z" />
    <glyph glyph-name="pi" unicode="&#x3c0;" horiz-adv-x="1286" 
d="M1233 889h-158v-574q0 -185 29 -315h-240q-37 61 -37 301v588h-321q-8 -204 -49 -474.5t-95 -414.5h-241q55 173 95.5 437t43.5 452q-142 0 -219 -23l-31 162q91 68 344 68h899z" />
    <glyph glyph-name="endash" unicode="&#x2013;" horiz-adv-x="1024" 
d="M0 713h1024v-197h-1024v197z" />
    <glyph glyph-name="emdash" unicode="&#x2014;" horiz-adv-x="2048" 
d="M0 713h2048v-197h-2048v197z" />
    <glyph glyph-name="quoteleft" unicode="&#x2018;" horiz-adv-x="606" 
d="M385 1073h-266l184 518h221z" />
    <glyph glyph-name="quoteright" unicode="&#x2019;" horiz-adv-x="606" 
d="M221 1591h266l-184 -518h-221z" />
    <glyph glyph-name="quotesinglbase" unicode="&#x201a;" horiz-adv-x="606" 
d="M195 270h266l-185 -518h-221z" />
    <glyph glyph-name="quotedblleft" unicode="&#x201c;" horiz-adv-x="1024" 
d="M385 1073h-266l184 518h221zM829 1073h-266l185 518h221z" />
    <glyph glyph-name="quotedblright" unicode="&#x201d;" horiz-adv-x="1024" 
d="M639 1591h266l-184 -518h-221zM195 1591h266l-185 -518h-221z" />
    <glyph glyph-name="quotedblbase" unicode="&#x201e;" horiz-adv-x="1024" 
d="M639 270h266l-184 -518h-221zM195 270h266l-185 -518h-221z" />
    <glyph glyph-name="dagger" unicode="&#x2020;" 
d="M465 -260v1091h-377v234h377v393h283v-393h376v-234h-376v-1091h-283z" />
    <glyph glyph-name="daggerdbl" unicode="&#x2021;" 
d="M465 -260v360h-348v226h348v546h-348v226h348v360h283v-360h348v-226h-348v-546h348v-226h-348v-360h-283z" />
    <glyph glyph-name="bullet" unicode="&#x2022;" horiz-adv-x="1024" 
d="M870 729q0 -149 -104.5 -253.5t-253.5 -104.5q-150 0 -254 104t-104 254q-2 149 102.5 253.5t255.5 104.5q149 0 253.5 -104.5t104.5 -253.5z" />
    <glyph glyph-name="ellipsis" unicode="&#x2026;" horiz-adv-x="2048" 
d="M211 0v270h262v-270h-262zM893 0v270h262v-270h-262zM1575 0v270h262v-270h-262z" />
    <glyph glyph-name="perthousand" unicode="&#x2030;" horiz-adv-x="2238" 
d="M373 852q141 0 141 254t-141 254q-142 0 -142 -254t142 -254zM373 719q-74 0 -131.5 21.5t-94.5 57.5t-61 87t-33.5 105t-9.5 116t9.5 116t33.5 105t61 87t94.5 57.5t131.5 21.5q92 0 158 -32t102 -88.5t52.5 -122t16.5 -144.5t-16.5 -144.5t-52.5 -122t-102 -88.5
t-158 -32zM1124 -35q-92 0 -158 32t-102 88.5t-52.5 122t-16.5 144.5t16.5 144.5t52.5 122t102 88.5t158 32q74 0 131.5 -21.5t94.5 -57.5t61 -87t33.5 -105t9.5 -116t-9.5 -116t-33.5 -105t-61 -87t-94.5 -57.5t-131.5 -21.5zM1124 98q142 0 142 254t-142 254
q-141 0 -141 -254t141 -254zM1866 -35q-74 0 -131.5 21.5t-94.5 57.5t-61 87t-33.5 105t-9.5 116t9.5 116t33.5 105t61 87t94.5 57.5t131.5 21.5q92 0 158 -32t102 -88.5t52.5 -122t16.5 -144.5t-16.5 -144.5t-52.5 -122t-102 -88.5t-158 -32zM1866 98q141 0 141 254
t-141 254q-142 0 -142 -254t142 -254zM279 -51l792 1560h150l-793 -1560h-149z" />
    <glyph glyph-name="guilsinglleft" unicode="&#x2039;" horiz-adv-x="645" 
d="M49 614l361 494l161 -109l-256 -385l256 -385l-161 -108z" />
    <glyph glyph-name="guilsinglright" unicode="&#x203a;" horiz-adv-x="645" 
d="M596 614l-360 -493l-162 106l256 387l-256 383l162 107z" />
    <glyph glyph-name="fraction" unicode="&#x2044;" horiz-adv-x="344" 
d="M-305 -51l792 1560h162l-792 -1560h-162z" />
    <glyph glyph-name="Euro" unicode="&#x20ac;" 
d="M123 961q42 218 186 362q94 94 200 132t241 38q132 0 270 -41q88 -25 174 -72l-113 -241q-71 57 -155 88q-74 28 -183 28q-60 0 -108 -19t-94 -69q-74 -82 -97 -206h555l-61 -132h-510q-2 -18 -2 -61v-61h455l-62 -132h-385q5 -66 28 -141t58 -123q86 -112 236 -112
q113 0 239 59q87 43 172 119v-293q-86 -50 -161 -74q-131 -43 -277 -43q-312 0 -481 221q-56 77 -92.5 182t-44.5 205h-150l59 132h82q0 44 4 122h-145l59 132h103z" />
    <glyph glyph-name="afii61289" unicode="&#x2113;" horiz-adv-x="1099" 
d="M952 377l105 -105q-153 -288 -443 -288q-91 0 -162.5 28t-116 77.5t-69.5 111t-33 135.5q0 14 -2 22q-12 -9 -51 -40.5t-61 -47.5l-66 131q145 118 176 146v532q0 137 30 242t82.5 166.5t118 92t142.5 30.5q100 0 169 -50t99.5 -130.5t30.5 -184.5q0 -182 -111 -361.5
t-323 -377.5l2 -80q1 -119 58 -182.5t145 -63.5q84 0 156.5 57t123.5 140zM467 1094v-363q272 296 272 518q0 187 -127 187q-60 0 -102.5 -80.5t-42.5 -261.5z" />
    <glyph glyph-name="trademark" unicode="&#x2122;" horiz-adv-x="2048" 
d="M1694 614v619h-4l-228 -619h-141l-227 619h-4v-619h-189v844h283l209 -555l206 555h283v-844h-188zM352 614v691h-246v153h689v-153h-246v-691h-197z" />
    <glyph glyph-name="Omega" unicode="&#x2126;" horiz-adv-x="1548" 
d="M389 199v6q-116 101 -194 255.5t-78 344.5q0 140 49 265t135 216.5t210 145t267 53.5q120 0 225.5 -38.5t181.5 -103.5t131 -151t82 -182t27 -195q0 -195 -79 -353.5t-197 -256.5v-6h307v-199h-563v147q122 76 202.5 232t80.5 387q0 135 -44.5 250t-137 190.5
t-216.5 75.5q-122 0 -215.5 -68.5t-143.5 -188t-50 -269.5q0 -215 81.5 -377t200.5 -232v-147h-563v199h301z" />
    <glyph glyph-name="estimated" unicode="&#x212e;" horiz-adv-x="1828" 
d="M1757 713h-1366q-10 0 -10 -8v-414q0 -26 18 -47q101 -106 234.5 -166t281.5 -60q159 0 299.5 67.5t243.5 184.5h121q-115 -135 -291 -214t-375 -79q-171 0 -327 60t-268.5 161t-179 241t-66.5 294q0 155 66.5 295.5t179 242.5t268.5 162t327 60q172 0 328.5 -60
t269.5 -162t179.5 -242.5t66.5 -295.5v-20zM1448 766v416q0 28 -21 49q-103 101 -235 159t-277 58q-147 0 -280 -59.5t-234 -163.5q-20 -20 -20 -51v-408q0 -12 10 -12h1047q10 0 10 12z" />
    <glyph glyph-name="partialdiff" unicode="&#x2202;" horiz-adv-x="1228" 
d="M221 1348l-74 180q161 121 390 121q118 0 223 -51.5t186 -149t128.5 -252t47.5 -346.5q0 -254 -69 -448.5t-205.5 -306t-323.5 -111.5q-87 0 -161 30t-125 79.5t-87 114t-52.5 133.5t-16.5 138q0 243 134 394t331 151q65 0 124 -20t99.5 -50.5t67 -58.5t39.5 -53h4v76
q0 145 -47 266t-133.5 192.5t-194.5 71.5q-163 0 -285 -100zM549 186h2q82 0 149 69t105 168t51 212q-24 68 -94 130t-166 62q-115 0 -192.5 -104.5t-77.5 -249.5q0 -122 62 -204.5t161 -82.5z" />
    <glyph glyph-name="Delta" unicode="&#x2206;" horiz-adv-x="1419" 
d="M57 0v145l510 1352h295l496 -1347v-150h-1301zM315 199h775l-256 661q-14 44 -63.5 185t-63.5 192h-7q-10 -40 -55 -167t-61 -179z" />
    <glyph glyph-name="product" unicode="&#x220f;" horiz-adv-x="1546" 
d="M1493 1241h-225v-1442h-244v1442h-504v-1442h-244v1442h-225v221h1442v-221z" />
    <glyph glyph-name="summation" unicode="&#x2211;" horiz-adv-x="1206" 
d="M1163 -203h-1114v156l535 676l-514 663v170h1058v-209h-722v-8l456 -577l-504 -637v-8h805v-226z" />
    <glyph glyph-name="minus" unicode="&#x2212;" horiz-adv-x="1228" 
d="M1130 420h-1032v196h1032v-196z" />
    <glyph glyph-name="uni2215" unicode="&#x2215;" horiz-adv-x="344" 
d="M-305 -51l792 1560h162l-792 -1560h-162z" />
    <glyph glyph-name="uni2219" unicode="&#x2219;" horiz-adv-x="606" 
d="M135 600q0 69 49.5 118.5t118.5 49.5t118.5 -49.5t49.5 -118.5t-49.5 -118.5t-118.5 -49.5t-118.5 49.5t-49.5 118.5z" />
    <glyph glyph-name="radical" unicode="&#x221a;" horiz-adv-x="1265" 
d="M1284 1749l-485 -2048h-201l-328 928l-159 -62l-43 138l350 139l237 -699q8 -33 23.5 -92.5t19.5 -77.5l2 -2q21 111 33 181l377 1595h174z" />
    <glyph glyph-name="infinity" unicode="&#x221e;" horiz-adv-x="1658" 
d="M1554 606v-2q0 -162 -101.5 -262t-238.5 -100q-97 0 -188 56t-195 189q-47 -58 -85.5 -96.5t-88 -75.5t-105 -55t-118.5 -18q-134 0 -233 100.5t-99 251.5q0 157 100 257.5t251 100.5q112 0 203 -62t184 -179q87 98 124 131q123 110 265 110q141 -2 233 -97.5t92 -248.5z
M453 379h4q42 0 82 16.5t77.5 48.5t64.5 60t64 71q7 9 11 13q-85 110 -123 147q-88 84 -189 84q-91 0 -145.5 -64.5t-54.5 -162.5q0 -89 59.5 -151t149.5 -62zM1214 819h-2q-32 0 -64.5 -11.5t-57 -27t-54.5 -42.5t-46.5 -45t-43.5 -49t-37 -42q103 -126 168 -174.5
t144 -48.5q87 0 139.5 67t52.5 148q0 100 -55.5 162.5t-143.5 62.5z" />
    <glyph glyph-name="integral" unicode="&#x222b;" horiz-adv-x="823" 
d="M782 1778l-28 -168q-36 20 -78 20q-68 0 -107 -53q-35 -42 -48 -126.5t-13 -229.5q0 -165 15.5 -496.5t15.5 -519.5q0 -278 -82 -418q-39 -72 -109 -107.5t-151 -35.5q-98 0 -160 34l33 172q50 -22 94 -22q61 0 96 43q64 84 64 334q0 189 -16.5 527.5t-16.5 510.5
q0 182 29 290t96 177q85 92 237 92q69 0 129 -24z" />
    <glyph glyph-name="approxequal" unicode="&#x2248;" horiz-adv-x="1191" 
d="M1014 942l88 -84q-52 -99 -125 -156t-162 -57q-61 0 -111.5 19t-134.5 67q-38 24 -61.5 37t-58 24t-68.5 11t-63.5 -12t-56.5 -37.5t-44 -46.5t-43 -58l-90 82q51 96 133 154.5t176 58.5q25 0 50 -4t43 -9t41.5 -15.5t34.5 -16.5t34 -19t29 -16q11 -6 35.5 -20.5t34 -20
t28.5 -15t30.5 -13t28 -6.5t33.5 -3q59 0 105 38.5t94 117.5zM1014 551l88 -82q-114 -213 -289 -213q-60 0 -111 19.5t-133 66.5q-40 25 -63 37.5t-57.5 23.5t-67.5 11q-35 0 -64.5 -11.5t-56 -37.5t-43 -47t-43.5 -60l-90 84q51 96 133 154.5t176 58.5q25 0 50 -4t43 -9
t41.5 -15.5t34.5 -16.5t34 -19t29 -16q10 -5 46 -26t50 -27.5t41.5 -14.5t52.5 -8q60 0 104 37t95 115z" />
    <glyph glyph-name="notequal" unicode="&#x2260;" horiz-adv-x="1191" 
d="M868 1077l-86 -192h305v-144h-360l-133 -295h493v-143h-548l-111 -246l-115 49l90 197h-299v143h357l129 295h-486v144h543l107 239z" />
    <glyph glyph-name="lessequal" unicode="&#x2264;" horiz-adv-x="1191" 
d="M1081 207l-966 473v156l966 473v-168l-819 -379v-6l819 -381v-168zM1087 -20h-981v145h981v-145z" />
    <glyph glyph-name="greaterequal" unicode="&#x2265;" horiz-adv-x="1191" 
d="M119 1309l964 -473v-156l-964 -473v168l817 381v4l-817 381v168zM1085 -20h-976v145h976v-145z" />
    <glyph glyph-name="lozenge" unicode="&#x25ca;" horiz-adv-x="1265" 
d="M1157 729l-430 -831h-197l-421 831l430 834h196zM940 725l-264 522q-28 75 -39 119h-6q-17 -60 -43 -119l-262 -512l266 -530q28 -71 37 -113h8q22 81 37 109z" />
    </font>
</defs>
</svg>
