<?xml version="1.0" standalone="no"?>
<!DOCTYPE svg PUBLIC "-//W3C//DTD SVG 1.1//EN" "http://www.w3.org/Graphics/SVG/1.1/DTD/svg11.dtd" >
<svg xmlns="http://www.w3.org/2000/svg" xmlns:xlink="http://www.w3.org/1999/xlink" version="1.1">
<metadata>
Created by FontForge 20170731 at Tue Apr 18 07:59:37 2023
 By Aleksey,,,
Copyright (c) 1991, 2002 Adobe Systems Incorporated.  All Rights Reserved. (c) 1981, 2002 Heidelberger Druckmaschinen AG. All rights reserved.
</metadata>
<defs>
<font id="VectoraLTStd-BoldItalic" horiz-adv-x="569" >
  <font-face 
    font-family="Vectora LT Std Light"
    font-weight="700"
    font-style="italic"
    font-stretch="normal"
    units-per-em="2048"
    panose-1="2 11 7 6 3 5 3 9 2 4"
    ascent="1591"
    descent="-457"
    x-height="1225"
    cap-height="1458"
    bbox="-340 -512 2157 1948"
    underline-thickness="102"
    underline-position="-307"
    slope="-12"
    unicode-range="U+0020-FB02"
  />
<missing-glyph horiz-adv-x="1169" 
d="M145 0v1434h1024v-1434h-1024zM657 809l349 522h-697zM719 717l348 -522v1044zM309 102h697l-349 523zM248 1239v-1044l348 522z" />
    <glyph glyph-name="fi" unicode="fi" horiz-adv-x="1327" 
d="M731 0l238 1225h299l-238 -1225h-299zM997 1372l43 219h299l-43 -219h-299zM43 915l41 213h178l27 134q17 86 54 153.5t82.5 108.5t103.5 67.5t112.5 36.5t112.5 10q103 0 194 -26l-41 -209q-74 22 -121 22q-67 0 -124.5 -40.5t-71.5 -112.5l-29 -144h238l-41 -213h-238
l-178 -915h-299l178 915h-178z" />
    <glyph glyph-name="fl" unicode="fl" horiz-adv-x="1327" 
d="M731 0l309 1591h299l-309 -1591h-299zM43 915l41 213h178l27 134q17 86 54 153.5t82.5 108.5t103.5 67.5t112.5 36.5t112.5 10q103 0 194 -26l-41 -209q-74 22 -121 22q-67 0 -124.5 -40.5t-71.5 -112.5l-29 -144h238l-41 -213h-238l-178 -915h-299l178 915h-178z" />
    <glyph glyph-name=".notdef" horiz-adv-x="1169" 
d="M145 0v1434h1024v-1434h-1024zM657 809l349 522h-697zM719 717l348 -522v1044zM309 102h697l-349 523zM248 1239v-1044l348 522z" />
    <glyph glyph-name=".null" horiz-adv-x="0" 
 />
    <glyph glyph-name="nonmarkingreturn" horiz-adv-x="682" 
 />
    <glyph glyph-name="space" unicode=" " horiz-adv-x="606" 
 />
    <glyph glyph-name="exclam" unicode="!" horiz-adv-x="681" 
d="M180 461l154 997h299l-238 -997h-215zM68 0l53 270h262l-53 -270h-262z" />
    <glyph glyph-name="quotedbl" unicode="&#x22;" horiz-adv-x="1024" 
d="M287 1071v520h213v-520h-213zM705 1071v520h213v-520h-213z" />
    <glyph glyph-name="numbersign" unicode="#" horiz-adv-x="1212" 
d="M698 596l37 266h-221l-37 -266h221zM758 1020l59 438h174l-59 -438h196l-22 -158h-197l-37 -266h197l-22 -158h-197l-62 -438h-174l62 438h-221l-62 -438h-174l62 438h-197l22 158h197l37 266h-197l23 158h196l60 438h174l-59 -438h221z" />
    <glyph glyph-name="dollar" unicode="$" horiz-adv-x="1212" 
d="M614 582l-75 -392q96 11 160.5 71.5t64.5 141.5q0 58 -30.5 95.5t-119.5 83.5zM592 907l70 367q-96 -11 -150.5 -68t-54.5 -125q0 -105 135 -174zM453 195l84 426q-100 45 -167 84.5t-119.5 89t-76.5 109.5t-24 136q0 59 17.5 119t59.5 121t104 107.5t159 76t215 29.5
l28 145h86l-28 -149q184 -18 283.5 -105.5t107.5 -201.5l-279 -78q0 66 -43 110t-112 56l-78 -402q71 -30 120.5 -54.5t98.5 -54.5t80 -60t55.5 -67.5t35.5 -82t11 -98.5q0 -94 -36 -180t-105 -155t-182 -110t-254 -41l-25 -129h-86l27 133q-79 5 -146.5 25t-127.5 59
t-102.5 105t-60.5 155l277 88q18 -92 66.5 -143t136.5 -63z" />
    <glyph glyph-name="percent" unicode="%" horiz-adv-x="1705" 
d="M651 1221q0 129 -116 129q-56 0 -99.5 -42t-65.5 -104.5t-33 -119.5t-11 -101q0 -129 118 -129q55 0 98 42t65 104t33 119.5t11 101.5zM223 -25l1080 1518h174l-1080 -1518h-174zM1380 485q0 129 -116 129q-56 0 -99.5 -42t-65.5 -104t-33 -119t-11 -101q0 -129 119 -129
q55 0 98 42t65 104t32.5 119t10.5 101zM129 997q0 127 47.5 238.5t145 184.5t225.5 73q136 0 218.5 -75.5t82.5 -211.5q0 -94 -28 -182t-80 -158t-133 -112.5t-179 -42.5q-134 0 -216.5 75t-82.5 211zM858 262q0 127 47.5 238.5t145 184.5t225.5 73q136 0 218.5 -75.5
t82.5 -211.5q0 -127 -47.5 -238.5t-145.5 -184.5t-227 -73q-134 0 -216.5 75.5t-82.5 211.5z" />
    <glyph glyph-name="ampersand" unicode="&#x26;" horiz-adv-x="1517" 
d="M1044 0l-96 121q-211 -146 -454 -146q-229 0 -351.5 107.5t-122.5 279.5q0 152 101.5 267t279.5 182q-70 80 -104.5 145.5t-34.5 141.5q0 167 139.5 281t350.5 114q178 0 294.5 -86.5t116.5 -232.5q0 -74 -28 -137t-84 -115t-123.5 -93.5t-161.5 -85.5l244 -301
q64 61 111.5 152t62.5 182h262q-9 -79 -37.5 -160t-96 -177.5t-163.5 -168.5l215 -270h-320zM893 1137q0 73 -44 112t-114 39q-79 0 -136.5 -54t-57.5 -134q0 -100 100 -197q134 53 193 105.5t59 128.5zM823 281l-291 366q-225 -98 -225 -268q0 -95 66.5 -147t173.5 -52
q127 0 276 101z" />
    <glyph glyph-name="quotesingle" unicode="'" horiz-adv-x="606" 
d="M287 1071v520h213v-520h-213z" />
    <glyph glyph-name="parenleft" unicode="(" horiz-adv-x="645" 
d="M606 1602l142 -125q-451 -510 -451 -1096q0 -138 34.5 -301t92.5 -273l-172 -90q-94 167 -147.5 371.5t-53.5 376.5q0 132 29 262.5t77.5 244t121 226.5t151.5 209.5t176 194.5z" />
    <glyph glyph-name="parenright" unicode=")" horiz-adv-x="645" 
d="M197 1511l172 91q94 -167 147 -371t53 -377q0 -132 -29 -262.5t-77.5 -244t-121 -226.5t-151.5 -209.5t-176 -194.5l-141 125q451 510 451 1096q0 138 -34.5 300.5t-92.5 272.5z" />
    <glyph glyph-name="asterisk" unicode="*" horiz-adv-x="1024" 
d="M520 1143l39 315h184l-79 -315l313 121l27 -174l-320 -80l158 -244l-164 -104l-125 268l-219 -266l-127 108l242 240l-285 84l86 168z" />
    <glyph glyph-name="plus" unicode="+" horiz-adv-x="1228" 
d="M485 616v420h197v-420h420v-196h-420v-420h-197v420h-419v196h419z" />
    <glyph glyph-name="comma" unicode="," horiz-adv-x="606" 
d="M-127 -250l240 520h262l-285 -520h-217z" />
    <glyph glyph-name="hyphen" unicode="-" horiz-adv-x="645" 
d="M29 512l39 205h505l-38 -205h-506z" />
    <glyph glyph-name="period" unicode="." horiz-adv-x="606" 
d="M31 0l53 270h262l-53 -270h-262z" />
    <glyph glyph-name="slash" unicode="/" horiz-adv-x="796" 
d="M-156 -35l924 1596l184 -68l-917 -1587z" />
    <glyph glyph-name="zero" unicode="0" horiz-adv-x="1212" 
d="M39 446q0 23 1 54t8 104t19 143.5t37 162t59 169.5t88 156.5t121 133.5t161.5 89.5t205.5 34.5q208 0 321.5 -126t113.5 -341q0 -35 -3 -83t-12.5 -121t-25 -147.5t-42.5 -159.5t-62 -160.5t-87.5 -146t-115.5 -121.5t-148.5 -81.5t-183.5 -30.5q-239 0 -347 122.5
t-108 348.5zM887 1036q0 252 -178 252q-88 0 -158.5 -71.5t-111 -175t-67.5 -229.5t-36.5 -224t-9.5 -170q0 -105 41 -171.5t137 -66.5q61 0 115 39t92 102t69 144.5t50.5 164.5t32.5 165t18.5 142t5.5 99z" />
    <glyph glyph-name="one" unicode="1" horiz-adv-x="1212" 
d="M180 1083l557 375h277l-283 -1458h-299l223 1145l-360 -254z" />
    <glyph glyph-name="two" unicode="2" horiz-adv-x="1212" 
d="M-37 0l41 215q212 175 343 284t236.5 203.5t156.5 146t85 100t41.5 78t7.5 69.5q0 75 -48.5 129.5t-149.5 54.5q-62 0 -111 -27.5t-75 -68.5t-39 -81t-13 -73l-262 49q43 197 180.5 305.5t354.5 108.5q196 0 323 -102t127 -275q0 -46 -6 -83.5t-26.5 -81.5t-43.5 -80
t-75.5 -92t-102 -103t-142.5 -127.5t-179 -151.5t-228 -188v-4h633l-39 -205h-989z" />
    <glyph glyph-name="three" unicode="3" horiz-adv-x="1212" 
d="M-12 358l270 56q0 -234 209 -234q112 0 184 84.5t72 194.5q0 192 -223 192q-32 0 -94 -4l43 217q60 0 107.5 4.5t101.5 20t89.5 41.5t59.5 72.5t24 109.5q0 81 -53 128.5t-133 47.5q-88 0 -148 -52t-83 -136l-244 74q34 87 90 150.5t124 99.5t139.5 52.5t148.5 16.5
q69 0 132 -12t121 -39.5t100.5 -67.5t67.5 -100t25 -133q0 -82 -31.5 -149.5t-84.5 -111.5t-115.5 -71t-130.5 -37v-8q130 -34 192 -102t62 -197q0 -95 -37 -183t-103.5 -156.5t-168 -109.5t-220.5 -41q-454 0 -493 383z" />
    <glyph glyph-name="four" unicode="4" horiz-adv-x="1212" 
d="M18 508l756 950h316l-197 -1009h190l-41 -205h-186l-47 -244h-270l47 244h-619zM225 449h412l111 561q18 92 51 178h-8q-3 -4 -10.5 -17.5t-15.5 -26.5t-17 -24z" />
    <glyph glyph-name="five" unicode="5" horiz-adv-x="1212" 
d="M45 356l240 47q-2 -12 -2 -36q0 -78 48 -136.5t142 -58.5q113 0 195 94t82 236q0 68 -24.5 118.5t-65 77.5t-85 39.5t-92.5 12.5q-150 0 -301 -93l168 801h824l-44 -213h-575l-63 -311q86 20 141 20q84 0 156 -26t127.5 -77t87.5 -132.5t32 -186.5t-36.5 -203t-105 -178
t-180.5 -128t-251 -48q-194 0 -301 96t-117 285z" />
    <glyph glyph-name="six" unicode="6" horiz-adv-x="1212" 
d="M733 1458h357l-564 -584l4 -4q91 37 183 37q148 0 253 -99t105 -267q0 -178 -75 -307.5t-202.5 -194t-291.5 -64.5q-203 0 -327 118t-124 333q0 146 69.5 278t196.5 279zM784 512q0 96 -54 147.5t-130 51.5q-88 0 -180 -45q-90 -115 -90 -277q0 -102 53 -155.5t141 -53.5
q75 0 135.5 48t92.5 123.5t32 160.5z" />
    <glyph glyph-name="seven" unicode="7" horiz-adv-x="1212" 
d="M854 1233h-645l43 225h969l-41 -209l-858 -1249h-334z" />
    <glyph glyph-name="eight" unicode="8" horiz-adv-x="1212" 
d="M33 326q0 145 102.5 259t276.5 181q-100 58 -153.5 141t-53.5 178q0 75 33.5 146.5t96 130.5t162.5 95t222 36q190 0 308 -83.5t118 -235.5q0 -130 -93.5 -243t-254.5 -159q64 -29 114 -71.5t86.5 -115t36.5 -161.5q0 -190 -151.5 -319.5t-378.5 -129.5q-229 0 -350 94.5
t-121 256.5zM756 414q0 65 -38 121t-130 114q-269 -104 -269 -295q0 -80 50 -131t141 -51q106 0 176 72.5t70 169.5zM874 1135q0 76 -53.5 118.5t-132.5 42.5q-88 0 -150.5 -57.5t-62.5 -140.5q0 -59 38 -111.5t128 -107.5q233 110 233 256z" />
    <glyph glyph-name="nine" unicode="9" horiz-adv-x="1212" 
d="M96 0l576 596h-10q-88 -35 -179 -35q-148 0 -253 99.5t-105 267.5q0 126 43.5 232t119.5 179t180.5 113.5t225.5 40.5q205 0 328 -117t123 -317q0 -145 -65.5 -282.5t-200.5 -291.5l-426 -485h-357zM866 1079q0 102 -53 155.5t-141 53.5q-75 0 -135.5 -48t-92.5 -123.5
t-32 -160.5q0 -96 54 -147t130 -51q88 0 180 45q90 115 90 276z" />
    <glyph glyph-name="colon" unicode=":" horiz-adv-x="606" 
d="M215 954l53 271h262l-53 -271h-262zM31 0l53 270h262l-53 -270h-262z" />
    <glyph glyph-name="semicolon" unicode=";" horiz-adv-x="606" 
d="M-127 -250l240 520h262l-285 -520h-217zM215 954l53 271h262l-53 -271h-262z" />
    <glyph glyph-name="less" unicode="&#x3c;" horiz-adv-x="1228" 
d="M66 436v164l1036 453v-197l-783 -338l783 -338v-196z" />
    <glyph glyph-name="equal" unicode="=" horiz-adv-x="1228" 
d="M66 639v197h1036v-197h-1036zM66 201v196h1036v-196h-1036z" />
    <glyph glyph-name="greater" unicode="&#x3e;" horiz-adv-x="1228" 
d="M848 518l-782 338v197l1036 -453v-164l-1036 -452v196z" />
    <glyph glyph-name="question" unicode="?" horiz-adv-x="1099" 
d="M383 1092l-246 53q14 66 52.5 126.5t98 111t146 80.5t187.5 30q180 0 296.5 -90t116.5 -254q0 -98 -52 -191.5t-146 -154.5q-62 -40 -103.5 -69.5t-71.5 -58.5t-45.5 -48.5t-27 -50.5t-15.5 -53t-10 -66h-225q19 121 41.5 185t53 99t97.5 82q144 103 193 168.5t49 134.5
q0 66 -47 110t-127 44q-87 0 -143.5 -55.5t-71.5 -132.5zM229 0l54 270h262l-53 -270h-263z" />
    <glyph glyph-name="at" unicode="@" horiz-adv-x="1638" 
d="M1014 778q0 74 -46.5 124t-115.5 50q-72 0 -132.5 -47.5t-92 -116t-31.5 -137.5q0 -79 47 -131.5t115 -52.5q71 0 131.5 49t92.5 120t32 142zM1075 1001l31 111h168q-67 -262 -100 -398t-38.5 -167t-5.5 -49q0 -26 7.5 -36.5t25.5 -10.5q37 0 77.5 24.5t77.5 69t61 118.5
t24 162q0 160 -74.5 277.5t-197.5 175t-279 57.5q-262 0 -426 -173t-164 -437q0 -269 172 -435.5t443 -166.5q254 0 438 174h172q-104 -158 -268 -245t-355 -87q-161 0 -306 58.5t-250.5 159.5t-167.5 243.5t-62 302.5q0 158 61.5 300t166 243.5t248 161t300.5 59.5
q110 0 215 -28.5t193.5 -84t155.5 -130.5t105 -173.5t38 -208.5q0 -120 -38.5 -221.5t-96.5 -166.5t-128.5 -111t-133 -66t-111.5 -20q-62 0 -89.5 26t-27.5 84h-4q-44 -48 -103.5 -79t-119.5 -31q-125 0 -221.5 104.5t-96.5 243.5q0 97 32 188t88.5 161.5t141 113.5
t181.5 43q163 0 241 -136z" />
    <glyph glyph-name="A" unicode="A" horiz-adv-x="1478" 
d="M1024 0l-51 336h-600l-187 -336h-327l837 1458h387l248 -1458h-307zM496 561h442l-70 447q-19 123 -22 217h-8q-48 -133 -133 -287z" />
    <glyph glyph-name="B" unicode="B" horiz-adv-x="1327" 
d="M8 0l283 1458h594q177 0 285 -84.5t108 -238.5q0 -149 -96.5 -254t-237.5 -123v-8q116 -25 180 -108t64 -191q0 -199 -149 -325t-390 -126h-641zM473 862h266q106 0 173 61t67 154q0 63 -47 109.5t-131 46.5h-256zM350 225h254q141 0 213 65.5t72 178.5q0 72 -48.5 120
t-140.5 48h-270z" />
    <glyph glyph-name="C" unicode="C" horiz-adv-x="1402" 
d="M991 457l271 -64q-72 -215 -234 -321.5t-397 -106.5q-122 0 -220.5 33t-162 88t-106.5 129.5t-61 154t-18 165.5q0 62 10.5 138t37.5 169.5t66.5 183t103.5 175t143 150t191 103.5t241 39q237 0 369.5 -110.5t158.5 -303.5l-288 -55q-17 115 -81 175.5t-165 60.5
q-78 0 -145 -32.5t-113.5 -84.5t-84 -121.5t-60 -139.5t-38 -141.5t-21 -125t-5.5 -93.5q0 -151 68.5 -237t201.5 -86q117 0 198 62.5t140 195.5z" />
    <glyph glyph-name="D" unicode="D" horiz-adv-x="1478" 
d="M8 0l283 1458h491q301 0 461 -157t160 -439q0 -251 -104.5 -447t-295 -305.5t-436.5 -109.5h-559zM362 233h236q93 0 180 44.5t155 124.5t109 201.5t41 264.5q0 168 -91 258.5t-267 90.5h-172z" />
    <glyph glyph-name="E" unicode="E" horiz-adv-x="1214" 
d="M8 0l283 1458h954l-45 -233h-653l-70 -359h617l-45 -233h-617l-78 -400h672l-45 -233h-973z" />
    <glyph glyph-name="F" unicode="F" horiz-adv-x="1175" 
d="M8 0l283 1458h950l-45 -233h-645l-76 -396h619l-45 -233h-619l-115 -596h-307z" />
    <glyph glyph-name="G" unicode="G" horiz-adv-x="1441" 
d="M756 582l43 225h540l-133 -688q-95 -63 -246 -108.5t-305 -45.5q-114 0 -210 30t-163 81.5t-114 120.5t-69.5 147.5t-22.5 161.5q0 109 20.5 221t61.5 224t108 209t152.5 171.5t204 118t254.5 43.5q95 0 176.5 -19t155 -60.5t126.5 -116t78 -177.5l-295 -71
q-21 101 -85.5 156t-174.5 55q-78 0 -145 -32t-113 -83.5t-83 -120t-59.5 -137.5t-37 -140t-20 -123.5t-5.5 -91.5q0 -171 75.5 -256.5t215.5 -85.5q71 0 140.5 18t115.5 44l64 330h-250z" />
    <glyph glyph-name="H" unicode="H" horiz-adv-x="1478" 
d="M1053 885l110 573h307l-282 -1458h-307l127 651h-566l-127 -651h-307l283 1458h307l-111 -573h566z" />
    <glyph glyph-name="I" unicode="I" horiz-adv-x="606" 
d="M8 0l283 1458h307l-283 -1458h-307z" />
    <glyph glyph-name="J" unicode="J" horiz-adv-x="833" 
d="M-174 53l164 213q57 -67 131 -67q73 0 124.5 59t80.5 207l192 993h307l-204 -1055q-44 -227 -177.5 -332.5t-334.5 -105.5q-91 0 -152.5 20.5t-130.5 67.5z" />
    <glyph glyph-name="K" unicode="K" horiz-adv-x="1366" 
d="M498 850l596 608h389l-729 -692l483 -766h-358l-418 684l-133 -684h-308l283 1458h307l-116 -604z" />
    <glyph glyph-name="L" unicode="L" horiz-adv-x="1062" 
d="M20 0l283 1458h307l-235 -1216h579l-47 -242h-887z" />
    <glyph glyph-name="M" unicode="M" horiz-adv-x="1933" 
d="M707 0l-150 1036q-1 8 -10.5 78.5t-14.5 110.5h-8q-11 -80 -45 -273l-184 -952h-287l283 1458h467l121 -835q4 -32 6.5 -71.5t4.5 -93t3 -75.5h8q44 120 90 207l465 868h469l-283 -1458h-294l192 1004q16 83 53 221h-8q-63 -128 -115 -228l-532 -997h-231z" />
    <glyph glyph-name="N" unicode="N" horiz-adv-x="1554" 
d="M868 0l-268 780q-25 73 -94 353h-8q-19 -183 -39 -287l-164 -846h-287l283 1458h385l307 -940q35 -115 53 -203h8q20 137 41 244l175 899h286l-282 -1458h-396z" />
    <glyph glyph-name="O" unicode="O" horiz-adv-x="1515" 
d="M63 522q0 160 41 309.5t115 268t172 208t217.5 137.5t245.5 48q151 0 267.5 -44.5t187.5 -123t107 -181t36 -224.5q0 -143 -33 -280t-102 -259.5t-167 -215t-238 -146.5t-304 -54q-110 0 -206.5 35t-173 102t-121 175.5t-44.5 244.5zM1133 924q0 158 -74 242.5t-209 84.5
q-139 0 -249.5 -99t-170 -267t-59.5 -371q0 -144 74 -234t200 -90q98 0 180.5 45.5t138 119.5t94.5 170.5t57 197.5t18 201z" />
    <glyph glyph-name="P" unicode="P" horiz-adv-x="1290" 
d="M2 0l283 1458h530q216 0 338.5 -104t122.5 -283q0 -126 -46 -228.5t-124 -167t-177 -98.5t-210 -34h-305l-105 -543h-307zM451 768h274q103 0 177.5 76t74.5 194q0 85 -56.5 140t-187.5 55h-192z" />
    <glyph glyph-name="Q" unicode="Q" horiz-adv-x="1515" 
d="M1133 924q0 158 -74 242.5t-209 84.5q-139 0 -249.5 -99t-170 -267t-59.5 -371q0 -144 74 -234t200 -90q98 0 180.5 45.5t138 119.5t94.5 170.5t57 197.5t18 201zM831 -6l265 -193l-193 -178l-469 367q-168 50 -269.5 185.5t-101.5 346.5q0 160 41 309.5t115 268t172 208
t217.5 137.5t245.5 48q151 0 267.5 -44.5t187.5 -123t107 -181t36 -224.5q0 -154 -40 -301t-115.5 -274t-195.5 -220.5t-270 -130.5z" />
    <glyph glyph-name="R" unicode="R" horiz-adv-x="1327" 
d="M813 0l-164 606h-215l-119 -606h-307l283 1458h581q190 0 298 -98t108 -270q0 -97 -29.5 -177t-79.5 -133t-113.5 -84.5t-135.5 -38.5l213 -657h-320zM469 831h254q115 0 185.5 62.5t70.5 169.5q0 84 -48 127t-138 43h-246z" />
    <glyph glyph-name="S" unicode="S" horiz-adv-x="1251" 
d="M-8 313l276 88q21 -105 81 -158t175 -53q107 0 182.5 62.5t75.5 150.5q0 74 -53.5 118t-241.5 132q-175 82 -247 171t-72 216q0 59 17.5 119t60 121t105 107.5t160.5 76t218 29.5q114 0 204.5 -26.5t146 -71.5t85.5 -99t35 -114l-278 -78q0 78 -58.5 124t-148.5 46
q-110 0 -175 -59t-65 -134q0 -55 34 -97.5t88 -71.5t119.5 -56.5t131.5 -61.5t120 -76.5t88 -110.5t34 -156q0 -70 -20 -137t-66 -131t-113 -112t-168.5 -77t-224.5 -29q-91 0 -168 17t-147.5 54.5t-120 108t-70.5 168.5z" />
    <glyph glyph-name="T" unicode="T" horiz-adv-x="1138" 
d="M111 1217l47 241h1106l-47 -241h-400l-235 -1217h-308l236 1217h-399z" />
    <glyph glyph-name="U" unicode="U" horiz-adv-x="1441" 
d="M1149 1458h299l-176 -913q-28 -143 -76.5 -247t-127.5 -180.5t-196 -114.5t-274 -38q-234 0 -370 114.5t-136 342.5q0 38 8 97.5t51.5 291.5t127.5 647h307q-88 -439 -130 -667.5t-49.5 -289t-7.5 -112.5q0 -94 63.5 -146.5t172.5 -52.5q139 0 223 92.5t121 286.5z" />
    <glyph glyph-name="V" unicode="V" horiz-adv-x="1366" 
d="M1176 1458h319l-776 -1458h-393l-176 1458h319q3 -36 33 -345.5t49.5 -540.5t19.5 -302h9q38 96 90 197z" />
    <glyph glyph-name="W" unicode="W" horiz-adv-x="1972" 
d="M1083 0v985q0 47 3.5 133.5t3.5 106.5h-9q-51 -185 -71 -232l-404 -993h-379l-57 1458h295q4 -634 4 -954v-262h8q25 106 84 258l375 958h389q21 -795 21 -909q0 -104 -11 -307h8q36 165 101 327l358 889h295l-618 -1458h-396z" />
    <glyph glyph-name="X" unicode="X" horiz-adv-x="1402" 
d="M508 762l-307 696h329l113 -291q43 -109 80 -249h8q64 104 166 239l225 301h348l-569 -715l330 -743h-332l-131 319q-69 169 -88 263h-8q-28 -57 -160 -230l-276 -352h-357z" />
    <glyph glyph-name="Y" unicode="Y" horiz-adv-x="1366" 
d="M473 559l-344 899h328l166 -469q16 -46 47 -176h8q78 128 117 182l333 463h359l-705 -899l-104 -559h-307z" />
    <glyph glyph-name="Z" unicode="Z" horiz-adv-x="1175" 
d="M-33 268l875 949h-666l47 241h1026l-51 -264l-891 -952h715l-47 -242h-1059z" />
    <glyph glyph-name="bracketleft" unicode="[" horiz-adv-x="645" 
d="M-41 -248l352 1815h408l-29 -144h-172l-295 -1527h170l-28 -144h-406z" />
    <glyph glyph-name="backslash" unicode="\" horiz-adv-x="796" 
d="M-8 1493l192 68l621 -1596l-199 -59z" />
    <glyph glyph-name="bracketright" unicode="]" horiz-adv-x="645" 
d="M100 -104l295 1527h-170l29 144h405l-352 -1815h-407l28 144h172z" />
    <glyph glyph-name="asciicircum" unicode="^" horiz-adv-x="1228" 
d="M928 651l-289 611l-289 -611h-196l393 807h184l393 -807h-196z" />
    <glyph glyph-name="underscore" unicode="_" horiz-adv-x="1024" 
d="M0 -256v102h1024v-102h-1024z" />
    <glyph glyph-name="grave" unicode="`" 
d="M391 1343l-315 295h325l201 -295h-211z" />
    <glyph glyph-name="a" unicode="a" horiz-adv-x="1175" 
d="M633 0l29 166l-5 4q-135 -110 -215 -152.5t-170 -42.5q-135 0 -212.5 89t-77.5 225q0 141 74 242.5t200 158.5q167 76 518 76q21 86 21 135q0 78 -47.5 115t-110.5 37q-84 0 -153 -57.5t-95 -137.5l-246 78q74 157 199.5 235t321.5 78q191 0 300 -89.5t109 -246.5
q0 -46 -6 -97.5t-13 -92t-28 -148.5l-68 -344q-24 -113 -38 -231h-287zM694 352l49 244q-93 0 -173.5 -12.5t-150.5 -40.5t-110.5 -79t-40.5 -120q0 -55 39 -95t105 -40q62 0 124.5 33.5t157.5 109.5z" />
    <glyph glyph-name="b" unicode="b" horiz-adv-x="1290" 
d="M473 887l-106 -543q68 -143 215 -143q71 0 132.5 57t100.5 145t61.5 191.5t22.5 200.5q0 112 -46.5 170.5t-127.5 58.5q-68 0 -138.5 -38.5t-113.5 -98.5zM2 0l309 1591h299l-98 -501l4 -5q69 75 155.5 119.5t178.5 44.5q46 0 92 -13t93 -44.5t82.5 -79t58 -123.5
t22.5 -170q0 -116 -21 -232.5t-67 -227t-111 -196t-160.5 -137t-207.5 -51.5q-196 0 -301 170l-29 -145h-299z" />
    <glyph glyph-name="c" unicode="c" horiz-adv-x="1099" 
d="M735 403l254 -69q-77 -177 -200 -268t-304 -91q-100 0 -180 28.5t-131 75.5t-85 110t-48 127.5t-14 132.5q0 105 24 214t75.5 214.5t123.5 188t178 133t229 50.5q105 0 186.5 -28t131 -77t77 -107.5t35.5 -127.5l-262 -69q0 100 -44.5 156.5t-127.5 56.5q-73 0 -132 -49
t-94 -121t-59 -161.5t-33 -164.5t-9 -135q0 -66 16 -114t43 -73t56.5 -36t62.5 -11q64 0 119 43t81.5 91t30.5 81z" />
    <glyph glyph-name="d" unicode="d" horiz-adv-x="1290" 
d="M780 336l111 565q-92 135 -211 135q-76 0 -140 -57.5t-103.5 -147.5t-61 -193.5t-21.5 -203.5q0 -114 48.5 -171.5t134.5 -57.5q53 0 108 28t135 103zM926 1081l98 510h299l-309 -1591h-299l26 135l-4 4q-152 -164 -338 -164q-67 0 -126 25t-109 76.5t-79.5 142
t-29.5 209.5q0 153 40.5 301t109.5 263t169 186t212 71q113 0 192.5 -39.5t147.5 -128.5z" />
    <glyph glyph-name="e" unicode="e" horiz-adv-x="1214" 
d="M1094 532h-779q-10 -39 -10 -110q0 -112 56.5 -177t146.5 -65q74 0 154 58.5t108 128.5l236 -84q-180 -308 -510 -308q-220 0 -344.5 127t-124.5 355q0 212 84.5 394t232.5 290t324 108q217 0 338.5 -127.5t121.5 -341.5q0 -56 -10 -129.5t-24 -118.5zM352 729h488
q10 35 10 94q0 101 -53.5 161t-139.5 60q-64 0 -120.5 -34t-93.5 -85.5t-60 -102t-31 -93.5z" />
    <glyph glyph-name="f" unicode="f" horiz-adv-x="757" 
d="M55 915l41 213h178l27 134q17 86 54 153.5t82.5 108.5t103.5 67.5t112.5 36.5t112.5 10q104 0 195 -26l-41 -209q-74 22 -121 22q-67 0 -125 -40.5t-72 -112.5l-29 -144h238l-41 -213h-238l-178 -915h-299l178 915h-178z" />
    <glyph glyph-name="g" unicode="g" horiz-adv-x="1214" 
d="M1300 1225l-32 -164h-262q30 -31 52.5 -86.5t22.5 -97.5q0 -74 -34 -146t-97 -132t-164.5 -97t-224.5 -37q-69 0 -115 8q-18 -10 -29 -29t-11 -38q0 -26 44 -48.5t110 -38t143.5 -42t143.5 -58t110 -88t44 -129.5q0 -63 -22 -121.5t-70.5 -112.5t-119.5 -94t-176 -64
t-232 -24q-237 0 -362 80.5t-125 204.5q0 105 84 198t212 140q-47 35 -47 98q0 119 164 207q-194 93 -194 303q0 81 38 159t104.5 138.5t165 97.5t210.5 37q42 0 105 -8t91 -16h473zM819 881q0 81 -50 126.5t-138 45.5q-101 0 -174.5 -63.5t-73.5 -164.5q0 -81 52 -122
t145 -41q107 0 173 67.5t66 151.5zM731 -63q0 29 -12.5 49.5t-32 34t-58 26.5t-75 22.5t-99.5 26t-116 33.5q-79 -38 -130.5 -95t-51.5 -114q0 -70 61 -109.5t182 -39.5q176 0 254 50t78 116z" />
    <glyph glyph-name="h" unicode="h" horiz-adv-x="1290" 
d="M2 0l309 1591h299l-104 -538h4q109 94 221 145t193 51q107 0 182.5 -64t75.5 -184q0 -70 -26 -217t-152 -784h-299q18 89 49 240q115 562 119 607l1 23q0 129 -118 129q-71 0 -151 -45.5t-138 -105.5l-166 -848h-299z" />
    <glyph glyph-name="i" unicode="i" 
d="M-6 0l237 1225h299l-237 -1225h-299zM260 1372l43 219h299l-43 -219h-299z" />
    <glyph glyph-name="j" unicode="j" 
d="M-295 -393l55 227q63 -14 82 -14q118 0 152 180l237 1225h299l-239 -1245q-23 -120 -61.5 -199t-95 -121t-119.5 -58t-150 -16q-49 0 -160 21zM260 1372l43 219h299l-43 -219h-299z" />
    <glyph glyph-name="k" unicode="k" horiz-adv-x="1214" 
d="M442 690l478 535h364l-571 -578l360 -647h-336l-315 610h-4l-117 -610h-299l309 1591h299l-174 -899l2 2z" />
    <glyph glyph-name="l" unicode="l" 
d="M-6 0l309 1591h299l-309 -1591h-299z" />
    <glyph glyph-name="m" unicode="m" horiz-adv-x="1933" 
d="M2 0l238 1225h299l-33 -172h4q227 196 377 196q103 0 173 -56t85 -157q221 213 422 213q107 0 182.5 -64t75.5 -184q0 -70 -26 -217t-152 -784h-299l75 365q92 448 94 487l1 18q0 129 -119 129q-55 0 -112.5 -32.5t-145.5 -106.5l-166 -860h-299q161 788 167 829
q3 22 3 41q0 129 -119 129q-52 0 -128 -46.5t-132 -104.5l-166 -848h-299z" />
    <glyph glyph-name="n" unicode="n" horiz-adv-x="1290" 
d="M2 0l238 1225h299l-33 -172h4q109 94 221 145t193 51q107 0 182.5 -64t75.5 -184q0 -70 -26 -217t-152 -784h-299q18 89 49 240q115 562 119 607l1 23q0 129 -118 129q-71 0 -151 -45.5t-138 -105.5l-166 -848h-299z" />
    <glyph glyph-name="o" unicode="o" horiz-adv-x="1251" 
d="M27 438q0 117 26.5 232t81.5 219.5t132.5 184.5t187 127.5t237.5 47.5q97 0 184.5 -30t155.5 -85t108 -141t40 -190q0 -122 -26.5 -240t-82 -224.5t-134 -187.5t-191.5 -128.5t-246 -47.5q-120 0 -212.5 38t-148.5 103.5t-84 147t-28 174.5zM326 416q0 -108 56 -168
t134 -60q75 0 138 42t104 107t69.5 146.5t41 157.5t12.5 143q0 75 -18 127t-50 78t-65.5 36.5t-73.5 10.5q-72 0 -132 -40.5t-99 -105.5t-66 -148t-39 -165.5t-12 -160.5z" />
    <glyph glyph-name="p" unicode="p" horiz-adv-x="1290" 
d="M473 889l-111 -565q48 -70 98.5 -103t112.5 -33q76 0 140 57.5t103.5 148t61 194t21.5 203.5q0 115 -48.5 174t-133.5 59q-52 0 -107.5 -29.5t-136.5 -105.5zM-74 -399l316 1624h299l-29 -144h4q55 75 149 121.5t189 46.5q67 0 126 -25t109 -76.5t79.5 -141.5t29.5 -209
q0 -153 -40 -301.5t-109 -263.5t-169 -186t-212 -71q-113 0 -192 40t-146 128l-105 -542h-299z" />
    <glyph glyph-name="q" unicode="q" horiz-adv-x="1290" 
d="M780 338l107 543q-68 143 -215 143q-71 0 -132.5 -57t-101 -145t-62 -191.5t-22.5 -200.5q0 -112 46.5 -170.5t127.5 -58.5q68 0 138.5 38.5t113.5 98.5zM924 1079l28 146h299l-315 -1624h-299l104 534l-4 4q-69 -75 -155.5 -119.5t-178.5 -44.5q-46 0 -92 13t-93 45
t-82.5 79.5t-58 123.5t-22.5 170q0 116 21 232.5t67 227t111.5 195.5t161 136.5t207.5 51.5q196 0 301 -170z" />
    <glyph glyph-name="r" unicode="r" horiz-adv-x="833" 
d="M2 0l238 1225h299l-33 -174l4 -4q169 202 387 202q29 0 47 -6l-51 -266q-50 8 -102 8q-83 0 -171 -44t-159 -124l-160 -817h-299z" />
    <glyph glyph-name="s" unicode="s" horiz-adv-x="1062" 
d="M-39 287l260 75q0 -77 55.5 -129.5t137.5 -52.5q55 0 98.5 17.5t68 44.5t36.5 56.5t12 57.5q0 43 -29 72.5t-75.5 47.5t-102 34.5t-111.5 41t-102.5 58t-75.5 94t-29 142.5q0 80 33.5 152t94.5 128.5t155.5 89.5t208.5 33q176 0 284 -80.5t142 -203.5l-252 -74
q-12 68 -56.5 110.5t-127.5 42.5q-96 0 -145.5 -49.5t-49.5 -111.5q0 -36 23.5 -62.5t61.5 -42t87 -32.5t100.5 -31.5t100.5 -40t87 -58t61.5 -86t23.5 -122.5q0 -87 -34 -164.5t-98 -138t-166.5 -95.5t-229.5 -35q-193 0 -298.5 79t-148.5 233z" />
    <glyph glyph-name="t" unicode="t" horiz-adv-x="833" 
d="M307 1128l51 271l314 123l-78 -394h289l-41 -213h-289q-111 -565 -111 -610q0 -104 131 -104q50 0 140 24l-41 -215q-31 -12 -100.5 -23.5t-139.5 -11.5q-126 0 -207.5 70t-81.5 207q0 41 17 132t106 531h-190l41 213h190z" />
    <glyph glyph-name="u" unicode="u" horiz-adv-x="1251" 
d="M754 377l166 848h299l-238 -1225h-299l33 172h-4q-101 -94 -212 -145.5t-192 -51.5q-69 0 -125.5 26.5t-94.5 90t-38 156.5q0 52 26.5 197.5t151.5 779.5h299q-161 -788 -167 -831q-3 -22 -3 -40q0 -129 119 -129q72 0 152 47t127 105z" />
    <glyph glyph-name="v" unicode="v" horiz-adv-x="1138" 
d="M246 0l-156 1225h307l62 -682q12 -132 12 -273h8q65 201 123 320l307 635h316l-629 -1225h-350z" />
    <glyph glyph-name="w" unicode="w" horiz-adv-x="1857" 
d="M840 1225h364q4 -101 14 -325t15.5 -381.5t5.5 -248.5h8q47 149 103 285l278 670h299l-557 -1225h-375q-17 333 -24.5 506t-8.5 241.5t-1 206.5h-9q-53 -183 -106 -307l-275 -647h-368l-113 1225h299q51 -598 51 -955h9q47 167 112 318z" />
    <glyph glyph-name="x" unicode="x" horiz-adv-x="1175" 
d="M385 653l-235 572h313l110 -318q14 -38 25 -100h8q30 55 51 86l244 332h334l-463 -576l248 -649h-322l-114 356q-20 66 -31 121h-8q-19 -42 -53 -88l-291 -389h-340z" />
    <glyph glyph-name="y" unicode="y" horiz-adv-x="1138" 
d="M289 20l-197 1205h309l60 -535q16 -150 16 -393h8q93 234 160 371l279 557h309l-727 -1354q-151 -285 -416 -285q-125 0 -207 31l58 223q16 -8 50 -18t56 -10q87 0 139 45t103 163z" />
    <glyph glyph-name="z" unicode="z" horiz-adv-x="1062" 
d="M-55 217l741 811q-106 -8 -156 -8h-409l39 205h927l-40 -215l-750 -813q106 8 156 8h454l-39 -205h-966z" />
    <glyph glyph-name="braceleft" unicode="{" horiz-adv-x="645" 
d="M-12 573l30 162q65 0 134 54t88 151l67 352q16 86 70.5 151.5t113.5 94.5t111 29h193l-29 -152h-109q-59 0 -91 -40t-46 -118l-69 -366q-19 -100 -96 -167t-146 -67v-6q46 0 101 -51t55 -127q0 -43 -41 -238t-41 -239q0 -50 21.5 -71t62.5 -21h108l-29 -152h-184
q-86 0 -145.5 59t-59.5 156q0 44 41 238t41 221q0 68 -47.5 107.5t-103.5 39.5z" />
    <glyph glyph-name="bar" unicode="|" horiz-adv-x="454" 
d="M129 -512v2048h197v-2048h-197z" />
    <glyph glyph-name="braceright" unicode="}" horiz-adv-x="645" 
d="M145 1415l29 152h184q86 0 145.5 -59t59.5 -156q0 -44 -41 -238t-41 -221q0 -68 48 -108t104 -40l-31 -161q-65 0 -133.5 -54t-87.5 -151l-68 -352q-16 -86 -70.5 -151.5t-113.5 -94.5t-111 -29h-192l29 152h108q59 0 91 39.5t46 117.5l70 367q19 100 96.5 167t145.5 67
v6q-46 0 -101 51t-55 127q0 43 41 238t41 239q0 50 -21.5 71t-62.5 21h-109z" />
    <glyph glyph-name="asciitilde" unicode="~" horiz-adv-x="1228" 
d="M184 348l-73 156q92 176 256 176q81 0 237 -70q150 -69 199 -69q50 0 89.5 34.5t90.5 112.5l74 -156q-92 -176 -256 -176q-82 0 -238 70q-152 70 -198 70q-50 0 -90 -35t-91 -113z" />
    <glyph glyph-name="uni00A0" unicode="&#xa0;" horiz-adv-x="606" 
 />
    <glyph glyph-name="exclamdown" unicode="&#xa1;" horiz-adv-x="681" 
d="M4 -233l238 997h215l-154 -997h-299zM254 954l53 271h262l-53 -271h-262z" />
    <glyph glyph-name="cent" unicode="&#xa2;" horiz-adv-x="1212" 
d="M406 295l380 743q-35 15 -73 15q-73 0 -132 -49t-94.5 -121t-59.5 -161.5t-33 -164.5t-9 -135q0 -73 21 -127zM883 1227l80 153l79 -24l-81 -160q161 -84 186 -287l-262 -69q0 88 -35 141l-387 -760q41 -33 100 -33q49 0 93.5 25t73 61t46 71t19.5 58l254 -69
q-77 -177 -200 -268t-304 -91q-107 0 -191 33l-82 -158l-79 27l86 170q-99 65 -146 173.5t-47 228.5q0 105 24 214t75.5 214.5t124 188t178.5 133t229 50.5q89 0 166 -22z" />
    <glyph glyph-name="sterling" unicode="&#xa3;" horiz-adv-x="1212" 
d="M182 205l86 452h-153l35 185h155q13 117 36.5 210t67 177.5t104 141t151 89.5t204.5 33q167 0 273 -80.5t123 -218.5l-263 -64q-9 73 -49 115.5t-110 42.5q-49 0 -86.5 -19.5t-64 -52.5t-48.5 -92t-36.5 -122.5t-31.5 -159.5h314l-35 -185h-315l-86 -452h555l-41 -205
h-971l41 205h145z" />
    <glyph glyph-name="currency" unicode="&#xa4;" horiz-adv-x="1212" 
d="M911 1139l121 121l113 -113l-123 -121q92 -129 92 -291t-92 -291l123 -120l-113 -113l-121 121q-134 -105 -305 -105t-305 105l-121 -121l-112 113l122 120q-92 129 -92 291t92 291l-122 121l112 113l121 -121q132 104 305 104t305 -104zM918 735q0 139 -87.5 231.5
t-224.5 92.5t-224 -92.5t-87 -231.5t87 -231t224 -92t224.5 92t87.5 231z" />
    <glyph glyph-name="yen" unicode="&#xa5;" horiz-adv-x="1212" 
d="M377 414l26 139h-301l25 131h229l-254 774h328l117 -469q25 -99 45 -201h8q40 79 119 207l285 463h358l-563 -774h248l-25 -131h-320l-26 -139h319l-24 -131h-320l-53 -283h-299l53 283h-301l25 131h301z" />
    <glyph glyph-name="brokenbar" unicode="&#xa6;" horiz-adv-x="454" 
d="M129 -358v716h197v-716h-197zM129 666v716h197v-716h-197z" />
    <glyph glyph-name="section" unicode="&#xa7;" horiz-adv-x="1212" 
d="M-8 -4l215 94q35 -174 225 -174q76 0 142.5 46t66.5 116q0 37 -22 68t-58.5 52.5t-83 44t-94.5 42t-94.5 47t-83 58.5t-58.5 77t-22 102q0 126 78 207.5t205 116.5q-140 91 -140 244q0 65 27.5 126t82 113.5t149.5 84.5t216 32q151 0 251 -64t134 -165l-210 -103
q-25 69 -79.5 108.5t-127.5 39.5q-70 0 -129.5 -42.5t-59.5 -113.5q0 -40 29 -73.5t75 -59t101.5 -51.5t111 -56.5t101.5 -67t75 -90.5t29 -120q0 -63 -23.5 -116t-62.5 -89t-84.5 -59.5t-95.5 -34.5q52 -31 88.5 -86.5t36.5 -130.5q0 -69 -31.5 -136t-90 -124t-156 -92
t-217.5 -35q-158 0 -263.5 61.5t-152.5 202.5zM815 578q0 45 -22.5 77.5t-82 71t-182.5 98.5q-174 -65 -174 -184q0 -41 20.5 -67.5t81.5 -63t212 -111.5q74 37 110.5 79t36.5 100z" />
    <glyph glyph-name="dieresis" unicode="&#xa8;" 
d="M55 1372l43 219h299l-43 -219h-299zM485 1372l43 219h299l-43 -219h-299z" />
    <glyph glyph-name="copyright" unicode="&#xa9;" horiz-adv-x="1638" 
d="M1053 606h168q-26 -149 -130 -235t-247 -86q-198 0 -313 126.5t-115 323.5t115 324t313 127q145 0 246 -83.5t124 -234.5h-161q-13 75 -70.5 117.5t-138.5 42.5q-114 0 -179 -81t-65 -212q0 -126 71 -209.5t173 -83.5q88 0 144 44t65 120zM55 729q0 155 60.5 296.5
t163 244t244 163t296.5 60.5t296.5 -60.5t244 -163t163 -244t60.5 -296.5t-60.5 -296.5t-163 -244t-244 -163t-296.5 -60.5t-296.5 60.5t-244 163t-163 244t-60.5 296.5zM1399 729q0 157 -78 290.5t-211.5 211.5t-290.5 78t-290.5 -78t-211 -211.5t-77.5 -290.5
q0 -117 46 -224.5t123.5 -185t185 -123.5t224.5 -46q157 0 290.5 77.5t211.5 211t78 290.5z" />
    <glyph glyph-name="ordfeminine" unicode="&#xaa;" horiz-adv-x="763" 
d="M483 743l19 101l-2 2q-83 -65 -135.5 -91t-112.5 -26q-88 0 -141.5 54.5t-53.5 134.5q0 84 51 146.5t134 96.5q108 45 331 45q13 43 13 78q0 46 -26.5 62t-70.5 16q-56 0 -97.5 -29t-59.5 -76l-164 48q49 95 132 141.5t216 46.5q123 0 194.5 -53.5t71.5 -147.5
q0 -74 -25.5 -193t-51 -221t-25.5 -135h-197zM520 954l33 144q-58 0 -108.5 -8t-94.5 -24.5t-70 -46t-26 -69.5q0 -34 23 -55t67 -21q41 0 80.5 19t95.5 61z" />
    <glyph glyph-name="guillemotleft" unicode="&#xab;" horiz-adv-x="1099" 
d="M31 653l415 449l150 -123l-311 -361l182 -399l-180 -92zM518 653l416 449l149 -123l-311 -361l182 -399l-180 -92z" />
    <glyph glyph-name="logicalnot" unicode="&#xac;" horiz-adv-x="1228" 
d="M66 639v197h1036v-615h-197v418h-839z" />
    <glyph glyph-name="uni00AD" unicode="&#xad;" horiz-adv-x="645" 
d="M29 512l39 205h505l-38 -205h-506z" />
    <glyph glyph-name="registered" unicode="&#xae;" horiz-adv-x="1638" 
d="M999 301l-211 365h-104v-365h-168v856h324q166 0 248.5 -59.5t82.5 -194.5q0 -109 -57 -164t-149 -65l215 -373h-181zM684 797h143q94 0 135.5 26t41.5 88q0 61 -42 88t-135 27h-143v-229zM55 729q0 155 60.5 296.5t163 244t244 163t296.5 60.5t296.5 -60.5t244 -163
t163 -244t60.5 -296.5t-60.5 -296.5t-163 -244t-244 -163t-296.5 -60.5t-296.5 60.5t-244 163t-163 244t-60.5 296.5zM1399 729q0 157 -78 290.5t-211.5 211.5t-290.5 78t-290.5 -78t-211 -211.5t-77.5 -290.5q0 -117 46 -224.5t123.5 -185t185 -123.5t224.5 -46
q157 0 290.5 77.5t211.5 211t78 290.5z" />
    <glyph glyph-name="macron" unicode="&#xaf;" 
d="M98 1419l29 152h643l-29 -152h-643z" />
    <glyph glyph-name="degree" unicode="&#xb0;" horiz-adv-x="819" 
d="M170 1200q0 122 86 207.5t207 85.5t207 -85.5t86 -207.5t-86 -207.5t-207 -85.5t-207 85.5t-86 207.5zM625 1200q0 68 -47.5 115t-114.5 47t-114.5 -47t-47.5 -115t47.5 -115t114.5 -47t114.5 47t47.5 115z" />
    <glyph glyph-name="plusminus" unicode="&#xb1;" horiz-adv-x="1228" 
d="M485 750v286h197v-286h420v-197h-420v-287h-197v287h-419v197h419zM66 0v197h1036v-197h-1036z" />
    <glyph glyph-name="twosuperior" unicode="&#xb2;" horiz-adv-x="794" 
d="M20 596l27 133q165 127 255.5 199t158.5 129t94 89.5t36.5 56t10.5 52.5q0 43 -29 69t-90 26q-69 0 -111 -43t-42 -90l-170 32q28 115 117.5 179.5t228.5 64.5q128 0 210.5 -61t82.5 -164q0 -44 -12 -80t-39 -75.5t-87 -93t-137 -115.5t-209 -161v-4h377l-28 -143h-644z
" />
    <glyph glyph-name="threesuperior" unicode="&#xb3;" horiz-adv-x="794" 
d="M31 813l184 33q0 -133 131 -133q73 0 117.5 47.5t44.5 109.5q0 117 -139 117q-10 0 -31.5 -1t-30.5 -1l27 133q50 0 88 5.5t77 20t60 45.5t21 77q0 45 -32.5 70.5t-84.5 25.5q-58 0 -97.5 -29.5t-52.5 -75.5l-161 46q44 100 132.5 145t194.5 45q57 0 108 -12t94.5 -36
t69 -66t25.5 -97q0 -64 -37.5 -113.5t-90.5 -75t-113 -32.5v-4q85 -22 127.5 -63t42.5 -117q0 -119 -97.5 -207t-251.5 -88q-149 0 -231 59.5t-94 171.5z" />
    <glyph glyph-name="acute" unicode="&#xb4;" 
d="M197 1343l229 295h338l-354 -295h-213z" />
    <glyph glyph-name="mu" unicode="&#xb5;" horiz-adv-x="1251" 
d="M682 0l33 145l-4 5q-104 -175 -248 -175q-51 0 -94.5 28.5t-63.5 68.5h-4l-88 -471h-299l313 1624h299q-161 -788 -167 -831q-3 -22 -3 -40q0 -51 43 -98t111 -47q71 0 140 47.5t104 120.5l166 848h299l-238 -1225h-299z" />
    <glyph glyph-name="paragraph" unicode="&#xb6;" horiz-adv-x="1212" 
d="M680 -233l299 1540h-223l-297 -1540h-197l160 829q-170 0 -262 93t-92 253q0 77 22.5 151t68.5 140.5t110.5 116t156 79t197.5 29.5h583l-329 -1691h-197z" />
    <glyph glyph-name="periodcentered" unicode="&#xb7;" horiz-adv-x="606" 
d="M139 625q0 60 42 101.5t102 41.5t101.5 -41.5t41.5 -101.5t-41.5 -102t-101.5 -42t-102 42t-42 102z" />
    <glyph glyph-name="cedilla" unicode="&#xb8;" 
d="M-33 -223l-43 49l142 174h112l-106 -123l4 -4q19 8 45 8q79 0 124.5 -38.5t45.5 -104.5q0 -74 -70.5 -130.5t-189.5 -56.5q-108 0 -230 56l49 84q102 -39 164 -39q43 0 74 22t31 56q0 28 -17.5 46.5t-54.5 18.5q-53 0 -80 -18z" />
    <glyph glyph-name="onesuperior" unicode="&#xb9;" horiz-adv-x="794" 
d="M127 1249l362 221h179l-170 -874h-197l135 686l-235 -152z" />
    <glyph glyph-name="ordmasculine" unicode="&#xba;" horiz-adv-x="788" 
d="M94 1006q0 89 28 174t80.5 155.5t136.5 114t187 43.5q133 0 225.5 -72t92.5 -196q0 -73 -17 -143.5t-53.5 -134.5t-88 -112.5t-125 -77t-159.5 -28.5q-77 0 -137.5 23t-96.5 62t-54.5 88t-18.5 104zM647 1239q0 56 -36.5 89.5t-94.5 33.5q-94 0 -159.5 -101t-65.5 -268
q0 -64 35 -98.5t86 -34.5q75 0 130 58.5t80 142.5t25 178z" />
    <glyph glyph-name="guillemotright" unicode="&#xbb;" horiz-adv-x="1099" 
d="M285 610l-183 400l181 92l256 -527l-416 -448l-150 123zM772 610l-182 400l180 92l256 -527l-416 -448l-149 123z" />
    <glyph glyph-name="onequarter" unicode="&#xbc;" horiz-adv-x="1820" 
d="M1018 305l491 569h209l-116 -604h114l-26 -131h-115l-27 -139h-184l27 139h-408zM1417 270l60 316q2 8 22 86l-8 2q-21 -40 -49 -76l-275 -328h250zM360 -49l863 1567h159l-862 -1567h-160zM98 1249l363 221h178l-170 -874h-197l136 686l-236 -152z" />
    <glyph glyph-name="onehalf" unicode="&#xbd;" horiz-adv-x="1820" 
d="M360 -49l863 1567h159l-862 -1567h-160zM98 1249l363 221h178l-170 -874h-197l136 686l-236 -152zM981 0l27 133q165 127 255.5 199t158.5 129t94 89.5t36.5 56t10.5 52.5q0 43 -29 69t-90 26q-69 0 -111.5 -43t-42.5 -90l-170 32q28 115 117.5 179.5t228.5 64.5
q128 0 210.5 -61t82.5 -164q0 -73 -38 -134.5t-133.5 -144.5t-311.5 -246v-4h377l-29 -143h-643z" />
    <glyph glyph-name="threequarters" unicode="&#xbe;" horiz-adv-x="1820" 
d="M1042 305l492 569h209l-117 -604h115l-27 -131h-115l-26 -139h-184l26 139h-407zM1442 270l59 316q4 17 13 50.5t10 35.5l-8 2q-19 -36 -50 -76l-274 -328h250zM459 -49l862 1567h160l-863 -1567h-159zM63 813l185 33q0 -133 131 -133q73 0 117.5 47.5t44.5 109.5
q0 117 -140 117q-10 0 -31 -1t-30 -1l27 133q50 0 88 5.5t76.5 20t59.5 45.5t21 77q0 45 -32 70.5t-84 25.5q-58 0 -97.5 -29.5t-52.5 -75.5l-162 46q30 68 85 112t115 61t128 17q57 0 108 -12t94.5 -36t69 -66t25.5 -97q0 -64 -38 -113.5t-91 -75t-113 -32.5v-4
q85 -22 127.5 -63t42.5 -117q0 -119 -97 -207t-251 -88q-149 0 -231.5 59.5t-94.5 171.5z" />
    <glyph glyph-name="questiondown" unicode="&#xbf;" horiz-adv-x="1099" 
d="M487 768h226q-14 -92 -28 -146.5t-38 -95.5t-50 -65t-77 -60q-144 -103 -192.5 -168t-48.5 -135q0 -66 47 -109.5t127 -43.5q87 0 143.5 55.5t71.5 132.5l245 -53q-14 -66 -52.5 -126.5t-97.5 -111t-145.5 -80.5t-187.5 -30q-180 0 -297 90t-117 254q0 98 52 191t147 155
q62 40 103.5 69.5t71 58.5t45.5 48.5t27 50.5t15 52.5t10 66.5zM506 954l53 271h262l-53 -271h-262z" />
    <glyph glyph-name="Agrave" unicode="&#xc0;" horiz-adv-x="1478" 
d="M1024 0l-51 336h-600l-187 -336h-327l837 1458h387l248 -1458h-307zM496 561h442l-70 447q-19 123 -22 217h-8q-48 -133 -133 -287zM846 1577l-316 295h326l201 -295h-211z" />
    <glyph glyph-name="Aacute" unicode="&#xc1;" horiz-adv-x="1478" 
d="M1024 0l-51 336h-600l-187 -336h-327l837 1458h387l248 -1458h-307zM496 561h442l-70 447q-19 123 -22 217h-8q-48 -133 -133 -287zM692 1577l230 295h338l-355 -295h-213z" />
    <glyph glyph-name="Acircumflex" unicode="&#xc2;" horiz-adv-x="1478" 
d="M1024 0l-51 336h-600l-187 -336h-327l837 1458h387l248 -1458h-307zM496 561h442l-70 447q-19 123 -22 217h-8q-48 -133 -133 -287zM1030 1577l-115 174l-182 -174h-239l292 295h271l180 -295h-207z" />
    <glyph glyph-name="Atilde" unicode="&#xc3;" horiz-adv-x="1478" 
d="M1024 0l-51 336h-600l-187 -336h-327l837 1458h387l248 -1458h-307zM496 561h442l-70 447q-19 123 -22 217h-8q-48 -133 -133 -287zM651 1593h-135q27 137 88 196.5t160 59.5q49 0 104.5 -22t100 -44t65.5 -22q71 0 96 92h136q-25 -138 -86 -197t-162 -59
q-49 0 -104 22.5t-99.5 44.5t-66.5 22q-67 0 -97 -93z" />
    <glyph glyph-name="Adieresis" unicode="&#xc4;" horiz-adv-x="1478" 
d="M1024 0l-51 336h-600l-187 -336h-327l837 1458h387l248 -1458h-307zM496 561h442l-70 447q-19 123 -22 217h-8q-48 -133 -133 -287zM522 1606l43 219h299l-43 -219h-299zM952 1606l43 219h299l-43 -219h-299z" />
    <glyph glyph-name="Aring" unicode="&#xc5;" horiz-adv-x="1478" 
d="M1024 0l-51 336h-600l-187 -336h-327l837 1458h387l248 -1458h-307zM496 561h442l-70 447q-19 123 -22 217h-8q-48 -133 -133 -287zM696 1733q0 89 63 152t152 63t152 -63t63 -152t-63 -152t-152 -63t-152 63t-63 152zM1022 1733q0 46 -32.5 78t-78.5 32t-78 -32t-32 -78
t32 -78.5t78 -32.5t78.5 32.5t32.5 78.5z" />
    <glyph glyph-name="AE" unicode="&#xc6;" horiz-adv-x="1972" 
d="M897 0l70 356h-480l-254 -356h-350l1088 1458h1032l-45 -233h-537l-69 -359h506l-46 -233h-505l-78 -400h561l-45 -233h-848zM1010 582l135 692h-8l-488 -692h361z" />
    <glyph glyph-name="Ccedilla" unicode="&#xc7;" horiz-adv-x="1402" 
d="M459 -223l-43 49l119 145q-101 12 -182.5 50t-134.5 92.5t-88.5 125t-51 144t-15.5 152.5q0 62 10.5 138t37.5 169.5t66.5 183t103.5 175t143 150t191 103.5t241 39q237 0 369.5 -110.5t158.5 -303.5l-288 -55q-17 115 -81 175.5t-165 60.5q-78 0 -145 -32.5
t-113.5 -84.5t-84 -121.5t-60 -139.5t-38 -141.5t-21 -125t-5.5 -93.5q0 -151 68.5 -237t201.5 -86q117 0 198 62.5t140 195.5l271 -64q-70 -210 -231 -319t-390 -109l-78 -88l4 -4q19 8 45 8q79 0 124.5 -38.5t45.5 -104.5q0 -74 -70.5 -130.5t-189.5 -56.5q-107 0 -229 56
l49 84q102 -39 164 -39q43 0 73.5 22t30.5 56q0 28 -17 46.5t-54 18.5q-53 0 -80 -18z" />
    <glyph glyph-name="Egrave" unicode="&#xc8;" horiz-adv-x="1214" 
d="M8 0l283 1458h954l-45 -233h-653l-70 -359h617l-45 -233h-617l-78 -400h672l-45 -233h-973zM715 1577l-316 295h326l201 -295h-211z" />
    <glyph glyph-name="Eacute" unicode="&#xc9;" horiz-adv-x="1214" 
d="M8 0l283 1458h954l-45 -233h-653l-70 -359h617l-45 -233h-617l-78 -400h672l-45 -233h-973zM612 1577l230 295h338l-355 -295h-213z" />
    <glyph glyph-name="Ecircumflex" unicode="&#xca;" horiz-adv-x="1214" 
d="M8 0l283 1458h954l-45 -233h-653l-70 -359h617l-45 -233h-617l-78 -400h672l-45 -233h-973zM928 1577l-115 174l-182 -174h-240l293 295h270l181 -295h-207z" />
    <glyph glyph-name="Edieresis" unicode="&#xcb;" horiz-adv-x="1214" 
d="M8 0l283 1458h954l-45 -233h-653l-70 -359h617l-45 -233h-617l-78 -400h672l-45 -233h-973zM403 1606l43 219h299l-43 -219h-299zM834 1606l43 219h299l-43 -219h-299z" />
    <glyph glyph-name="Igrave" unicode="&#xcc;" horiz-adv-x="606" 
d="M8 0l283 1458h307l-283 -1458h-307zM410 1577l-316 295h326l201 -295h-211z" />
    <glyph glyph-name="Iacute" unicode="&#xcd;" horiz-adv-x="606" 
d="M8 0l283 1458h307l-283 -1458h-307zM276 1577l230 295h338l-355 -295h-213z" />
    <glyph glyph-name="Icircumflex" unicode="&#xce;" horiz-adv-x="606" 
d="M8 0l283 1458h307l-283 -1458h-307zM594 1577l-115 174l-182 -174h-240l293 295h271l180 -295h-207z" />
    <glyph glyph-name="Idieresis" unicode="&#xcf;" horiz-adv-x="606" 
d="M8 0l283 1458h307l-283 -1458h-307zM86 1606l43 219h299l-43 -219h-299zM516 1606l43 219h299l-43 -219h-299z" />
    <glyph glyph-name="Eth" unicode="&#xd0;" horiz-adv-x="1478" 
d="M174 844l117 614h491q301 0 461 -157t160 -439q0 -251 -104.5 -447t-295 -305.5t-436.5 -109.5h-559l139 713h-155l24 131h158zM455 713l-93 -480h236q93 0 180 44.5t155 124.5t109 201.5t41 264.5q0 168 -91 258.5t-267 90.5h-172l-72 -373h312l-25 -131h-313z" />
    <glyph glyph-name="Ntilde" unicode="&#xd1;" horiz-adv-x="1554" 
d="M868 0l-268 780q-25 73 -94 353h-8q-19 -183 -39 -287l-164 -846h-287l283 1458h385l307 -940q35 -115 53 -203h8q20 137 41 244l175 899h286l-282 -1458h-396zM690 1593h-135q27 137 88 196.5t160 59.5q49 0 104.5 -22t100 -44t65.5 -22q71 0 96 92h136
q-25 -138 -86 -197t-162 -59q-49 0 -104.5 22.5t-100 44.5t-66.5 22q-66 0 -96 -93z" />
    <glyph glyph-name="Ograve" unicode="&#xd2;" horiz-adv-x="1515" 
d="M63 522q0 160 41 309.5t115 268t172 208t217.5 137.5t245.5 48q151 0 267.5 -44.5t187.5 -123t107 -181t36 -224.5q0 -143 -33 -280t-102 -259.5t-167 -215t-238 -146.5t-304 -54q-110 0 -206.5 35t-173 102t-121 175.5t-44.5 244.5zM1133 924q0 158 -74 242.5t-209 84.5
q-139 0 -249.5 -99t-170 -267t-59.5 -371q0 -144 74 -234t200 -90q98 0 180.5 45.5t138 119.5t94.5 170.5t57 197.5t18 201zM864 1577l-315 295h325l201 -295h-211z" />
    <glyph glyph-name="Oacute" unicode="&#xd3;" horiz-adv-x="1515" 
d="M63 522q0 160 41 309.5t115 268t172 208t217.5 137.5t245.5 48q151 0 267.5 -44.5t187.5 -123t107 -181t36 -224.5q0 -143 -33 -280t-102 -259.5t-167 -215t-238 -146.5t-304 -54q-110 0 -206.5 35t-173 102t-121 175.5t-44.5 244.5zM1133 924q0 158 -74 242.5t-209 84.5
q-139 0 -249.5 -99t-170 -267t-59.5 -371q0 -144 74 -234t200 -90q98 0 180.5 45.5t138 119.5t94.5 170.5t57 197.5t18 201zM731 1577l230 295h337l-354 -295h-213z" />
    <glyph glyph-name="Ocircumflex" unicode="&#xd4;" horiz-adv-x="1515" 
d="M63 522q0 160 41 309.5t115 268t172 208t217.5 137.5t245.5 48q151 0 267.5 -44.5t187.5 -123t107 -181t36 -224.5q0 -143 -33 -280t-102 -259.5t-167 -215t-238 -146.5t-304 -54q-110 0 -206.5 35t-173 102t-121 175.5t-44.5 244.5zM1133 924q0 158 -74 242.5t-209 84.5
q-139 0 -249.5 -99t-170 -267t-59.5 -371q0 -144 74 -234t200 -90q98 0 180.5 45.5t138 119.5t94.5 170.5t57 197.5t18 201zM1049 1577l-115 174l-182 -174h-240l293 295h270l180 -295h-206z" />
    <glyph glyph-name="Otilde" unicode="&#xd5;" horiz-adv-x="1515" 
d="M63 522q0 160 41 309.5t115 268t172 208t217.5 137.5t245.5 48q151 0 267.5 -44.5t187.5 -123t107 -181t36 -224.5q0 -143 -33 -280t-102 -259.5t-167 -215t-238 -146.5t-304 -54q-110 0 -206.5 35t-173 102t-121 175.5t-44.5 244.5zM1133 924q0 158 -74 242.5t-209 84.5
q-139 0 -249.5 -99t-170 -267t-59.5 -371q0 -144 74 -234t200 -90q98 0 180.5 45.5t138 119.5t94.5 170.5t57 197.5t18 201zM670 1593h-135q27 137 87.5 196.5t159.5 59.5q49 0 104.5 -22t100.5 -44t66 -22q71 0 96 92h135q-25 -138 -86 -197t-162 -59q-49 0 -104 22.5
t-99.5 44.5t-66.5 22q-66 0 -96 -93z" />
    <glyph glyph-name="Odieresis" unicode="&#xd6;" horiz-adv-x="1515" 
d="M63 522q0 160 41 309.5t115 268t172 208t217.5 137.5t245.5 48q151 0 267.5 -44.5t187.5 -123t107 -181t36 -224.5q0 -143 -33 -280t-102 -259.5t-167 -215t-238 -146.5t-304 -54q-110 0 -206.5 35t-173 102t-121 175.5t-44.5 244.5zM1133 924q0 158 -74 242.5t-209 84.5
q-139 0 -249.5 -99t-170 -267t-59.5 -371q0 -144 74 -234t200 -90q98 0 180.5 45.5t138 119.5t94.5 170.5t57 197.5t18 201zM528 1606l43 219h299l-43 -219h-299zM958 1606l43 219h299l-43 -219h-299z" />
    <glyph glyph-name="multiply" unicode="&#xd7;" horiz-adv-x="1228" 
d="M582 653l340 342l137 -137l-340 -340l342 -340l-137 -137l-340 342l-340 -342l-138 137l343 340l-340 340l137 137z" />
    <glyph glyph-name="Oslash" unicode="&#xd8;" horiz-adv-x="1515" 
d="M379 426l721 672q-63 153 -250 153q-139 0 -249.5 -99t-170 -267t-59.5 -371q0 -52 8 -88zM1126 1008l-718 -668q33 -70 94 -110t143 -40q98 0 180.5 45.5t138 119.5t94.5 170.5t57 197.5t18 201q0 37 -7 84zM1325 1307l164 151l55 -61l-170 -158q78 -135 78 -319
q0 -143 -33 -280t-102 -259.5t-167 -215t-238 -146.5t-304 -54q-124 0 -232 44t-183 130l-150 -139l-55 61l155 146q-80 132 -80 315q0 160 41 309.5t115 268t172 208t217.5 137.5t245.5 48q316 0 471 -186z" />
    <glyph glyph-name="Ugrave" unicode="&#xd9;" horiz-adv-x="1441" 
d="M1149 1458h299l-176 -913q-28 -143 -76.5 -247t-127.5 -180.5t-196 -114.5t-274 -38q-234 0 -370 114.5t-136 342.5q0 38 8 97.5t51.5 291.5t127.5 647h307q-88 -439 -130 -667.5t-49.5 -289t-7.5 -112.5q0 -94 63.5 -146.5t172.5 -52.5q139 0 223 92.5t121 286.5z
M827 1577l-315 295h326l200 -295h-211z" />
    <glyph glyph-name="Uacute" unicode="&#xda;" horiz-adv-x="1441" 
d="M1149 1458h299l-176 -913q-28 -143 -76.5 -247t-127.5 -180.5t-196 -114.5t-274 -38q-234 0 -370 114.5t-136 342.5q0 38 8 97.5t51.5 291.5t127.5 647h307q-88 -439 -130 -667.5t-49.5 -289t-7.5 -112.5q0 -94 63.5 -146.5t172.5 -52.5q139 0 223 92.5t121 286.5z
M694 1577l230 295h338l-355 -295h-213z" />
    <glyph glyph-name="Ucircumflex" unicode="&#xdb;" horiz-adv-x="1441" 
d="M1149 1458h299l-176 -913q-28 -143 -76.5 -247t-127.5 -180.5t-196 -114.5t-274 -38q-234 0 -370 114.5t-136 342.5q0 38 8 97.5t51.5 291.5t127.5 647h307q-88 -439 -130 -667.5t-49.5 -289t-7.5 -112.5q0 -94 63.5 -146.5t172.5 -52.5q139 0 223 92.5t121 286.5z
M1012 1577l-115 174l-182 -174h-240l293 295h270l181 -295h-207z" />
    <glyph glyph-name="Udieresis" unicode="&#xdc;" horiz-adv-x="1441" 
d="M1149 1458h299l-176 -913q-28 -143 -76.5 -247t-127.5 -180.5t-196 -114.5t-274 -38q-234 0 -370 114.5t-136 342.5q0 38 8 97.5t51.5 291.5t127.5 647h307q-88 -439 -130 -667.5t-49.5 -289t-7.5 -112.5q0 -94 63.5 -146.5t172.5 -52.5q139 0 223 92.5t121 286.5z
M504 1606l43 219h299l-43 -219h-299zM934 1606l43 219h299l-43 -219h-299z" />
    <glyph glyph-name="Yacute" unicode="&#xdd;" horiz-adv-x="1366" 
d="M473 559l-344 899h328l166 -469q16 -46 47 -176h8q78 128 117 182l333 463h359l-705 -899l-104 -559h-307zM657 1577l230 295h338l-355 -295h-213z" />
    <glyph glyph-name="Thorn" unicode="&#xde;" horiz-adv-x="1290" 
d="M2 0l283 1458h307l-41 -209h223q216 0 338.5 -104t122.5 -283q0 -126 -46 -228.5t-124 -167t-177 -98.5t-210 -34h-303l-66 -334h-307zM410 559h274q103 0 177.5 76t74.5 194q0 85 -56.5 140t-187.5 55h-192z" />
    <glyph glyph-name="germandbls" unicode="&#xdf;" horiz-adv-x="1290" 
d="M420 20l86 209q76 -26 112 -26q85 0 148 52.5t92 130.5t29 167q0 82 -56.5 136t-152.5 54h-72l41 213h47q119 0 183.5 80t64.5 207q0 74 -46 116t-122 42q-105 0 -160 -68.5t-82 -202.5l-219 -1130h-299l219 1126q45 229 183.5 358.5t376.5 129.5q208 0 318 -95t110 -249
q0 -87 -30.5 -160.5t-81 -122.5t-111.5 -79t-128 -40v-8q155 -36 225 -117.5t70 -210.5q0 -71 -19 -145t-61 -147t-101.5 -129.5t-149.5 -91.5t-197 -35q-48 0 -114.5 11.5t-102.5 24.5z" />
    <glyph glyph-name="agrave" unicode="&#xe0;" horiz-adv-x="1175" 
d="M633 0l29 166l-5 4q-135 -110 -215 -152.5t-170 -42.5q-135 0 -212.5 89t-77.5 225q0 141 74 242.5t200 158.5q167 76 518 76q21 86 21 135q0 78 -47.5 115t-110.5 37q-84 0 -153 -57.5t-95 -137.5l-246 78q74 157 199.5 235t321.5 78q191 0 300 -89.5t109 -246.5
q0 -46 -6 -97.5t-13 -92t-28 -148.5l-68 -344q-24 -113 -38 -231h-287zM694 352l49 244q-93 0 -173.5 -12.5t-150.5 -40.5t-110.5 -79t-40.5 -120q0 -55 39 -95t105 -40q62 0 124.5 33.5t157.5 109.5zM694 1343l-315 295h326l200 -295h-211z" />
    <glyph glyph-name="aacute" unicode="&#xe1;" horiz-adv-x="1175" 
d="M633 0l29 166l-5 4q-135 -110 -215 -152.5t-170 -42.5q-135 0 -212.5 89t-77.5 225q0 141 74 242.5t200 158.5q167 76 518 76q21 86 21 135q0 78 -47.5 115t-110.5 37q-84 0 -153 -57.5t-95 -137.5l-246 78q74 157 199.5 235t321.5 78q191 0 300 -89.5t109 -246.5
q0 -46 -6 -97.5t-13 -92t-28 -148.5l-68 -344q-24 -113 -38 -231h-287zM694 352l49 244q-93 0 -173.5 -12.5t-150.5 -40.5t-110.5 -79t-40.5 -120q0 -55 39 -95t105 -40q62 0 124.5 33.5t157.5 109.5zM500 1343l229 295h338l-354 -295h-213z" />
    <glyph glyph-name="acircumflex" unicode="&#xe2;" horiz-adv-x="1175" 
d="M633 0l29 166l-5 4q-135 -110 -215 -152.5t-170 -42.5q-135 0 -212.5 89t-77.5 225q0 141 74 242.5t200 158.5q167 76 518 76q21 86 21 135q0 78 -47.5 115t-110.5 37q-84 0 -153 -57.5t-95 -137.5l-246 78q74 157 199.5 235t321.5 78q191 0 300 -89.5t109 -246.5
q0 -46 -6 -97.5t-13 -92t-28 -148.5l-68 -344q-24 -113 -38 -231h-287zM694 352l49 244q-93 0 -173.5 -12.5t-150.5 -40.5t-110.5 -79t-40.5 -120q0 -55 39 -95t105 -40q62 0 124.5 33.5t157.5 109.5zM866 1343l-114 175l-183 -175h-239l293 295h270l180 -295h-207z" />
    <glyph glyph-name="atilde" unicode="&#xe3;" horiz-adv-x="1175" 
d="M633 0l29 166l-5 4q-135 -110 -215 -152.5t-170 -42.5q-135 0 -212.5 89t-77.5 225q0 141 74 242.5t200 158.5q167 76 518 76q21 86 21 135q0 78 -47.5 115t-110.5 37q-84 0 -153 -57.5t-95 -137.5l-246 78q74 157 199.5 235t321.5 78q191 0 300 -89.5t109 -246.5
q0 -46 -6 -97.5t-13 -92t-28 -148.5l-68 -344q-24 -113 -38 -231h-287zM694 352l49 244q-93 0 -173.5 -12.5t-150.5 -40.5t-110.5 -79t-40.5 -120q0 -55 39 -95t105 -40q62 0 124.5 33.5t157.5 109.5zM500 1360h-135q27 137 87.5 196.5t159.5 59.5q49 0 104.5 -22t100.5 -44
t66 -22q71 0 96 92h135q-25 -138 -86 -197t-162 -59q-49 0 -104 22t-99.5 44t-66.5 22q-67 0 -96 -92z" />
    <glyph glyph-name="adieresis" unicode="&#xe4;" horiz-adv-x="1175" 
d="M633 0l29 166l-5 4q-135 -110 -215 -152.5t-170 -42.5q-135 0 -212.5 89t-77.5 225q0 141 74 242.5t200 158.5q167 76 518 76q21 86 21 135q0 78 -47.5 115t-110.5 37q-84 0 -153 -57.5t-95 -137.5l-246 78q74 157 199.5 235t321.5 78q191 0 300 -89.5t109 -246.5
q0 -46 -6 -97.5t-13 -92t-28 -148.5l-68 -344q-24 -113 -38 -231h-287zM694 352l49 244q-93 0 -173.5 -12.5t-150.5 -40.5t-110.5 -79t-40.5 -120q0 -55 39 -95t105 -40q62 0 124.5 33.5t157.5 109.5zM358 1372l43 219h299l-43 -219h-299zM788 1372l43 219h299l-43 -219
h-299z" />
    <glyph glyph-name="aring" unicode="&#xe5;" horiz-adv-x="1175" 
d="M633 0l29 166l-5 4q-135 -110 -215 -152.5t-170 -42.5q-135 0 -212.5 89t-77.5 225q0 141 74 242.5t200 158.5q167 76 518 76q21 86 21 135q0 78 -47.5 115t-110.5 37q-84 0 -153 -57.5t-95 -137.5l-246 78q74 157 199.5 235t321.5 78q191 0 300 -89.5t109 -246.5
q0 -46 -6 -97.5t-13 -92t-28 -148.5l-68 -344q-24 -113 -38 -231h-287zM694 352l49 244q-93 0 -173.5 -12.5t-150.5 -40.5t-110.5 -79t-40.5 -120q0 -55 39 -95t105 -40q62 0 124.5 33.5t157.5 109.5zM532 1550q0 89 63.5 152t152.5 63t152 -63t63 -152t-63 -152t-152 -63
t-152.5 63t-63.5 152zM858 1550q0 46 -32 78.5t-78 32.5t-78.5 -32.5t-32.5 -78.5t32.5 -78t78.5 -32t78 32t32 78z" />
    <glyph glyph-name="ae" unicode="&#xe6;" horiz-adv-x="1896" 
d="M403 858l-245 78q74 157 199 235t321 78q135 0 216 -45t124 -133q55 86 160.5 132t226.5 46q203 0 310.5 -120.5t107.5 -348.5q0 -57 -10.5 -128t-24.5 -105h-760q-12 -54 -12 -125q0 -114 49 -178t137 -64q74 0 154 58.5t108 128.5l236 -84q-180 -308 -510 -308
q-163 0 -269 58.5t-143 165.5q-94 -96 -218.5 -160t-225.5 -64q-159 0 -248.5 84t-89.5 230q0 138 74 239t200 158q176 80 527 80q20 82 20 135q0 77 -51 114.5t-115 37.5q-84 0 -153 -57.5t-95 -137.5zM1063 743h471q10 20 10 80q0 102 -53 161.5t-139 59.5
q-64 0 -118 -33.5t-88 -84.5t-54 -97t-29 -86zM717 352l49 230q-483 0 -483 -238q0 -56 38.5 -95.5t104.5 -39.5q62 0 125 33t166 110z" />
    <glyph glyph-name="ccedilla" unicode="&#xe7;" horiz-adv-x="1099" 
d="M276 -174l127 154q-102 14 -177.5 61t-117.5 114.5t-61.5 141t-19.5 152.5q0 105 24 214t75.5 214.5t123.5 188t178 133t229 50.5q105 0 186.5 -28t131 -77t77 -107.5t35.5 -127.5l-262 -69q0 100 -44.5 156.5t-127.5 56.5q-73 0 -132 -49t-94 -121t-59 -161.5
t-33 -164.5t-9 -135q0 -66 16 -114t43 -73t56.5 -36t62.5 -11q64 0 119 43t81.5 91t30.5 81l254 -69q-74 -170 -195.5 -264.5t-283.5 -94.5l-86 -98l4 -4q19 8 45 8q79 0 124.5 -38.5t45.5 -104.5q0 -74 -70.5 -130.5t-189.5 -56.5q-107 0 -229 56l49 84q102 -39 164 -39
q43 0 73.5 22t30.5 56q0 28 -17.5 46.5t-54.5 18.5q-53 0 -80 -18z" />
    <glyph glyph-name="egrave" unicode="&#xe8;" horiz-adv-x="1214" 
d="M1094 532h-779q-10 -39 -10 -110q0 -112 56.5 -177t146.5 -65q74 0 154 58.5t108 128.5l236 -84q-180 -308 -510 -308q-220 0 -344.5 127t-124.5 355q0 212 84.5 394t232.5 290t324 108q217 0 338.5 -127.5t121.5 -341.5q0 -56 -10 -129.5t-24 -118.5zM352 729h488
q10 35 10 94q0 101 -53.5 161t-139.5 60q-64 0 -120.5 -34t-93.5 -85.5t-60 -102t-31 -93.5zM715 1343l-316 295h326l201 -295h-211z" />
    <glyph glyph-name="eacute" unicode="&#xe9;" horiz-adv-x="1214" 
d="M1094 532h-779q-10 -39 -10 -110q0 -112 56.5 -177t146.5 -65q74 0 154 58.5t108 128.5l236 -84q-180 -308 -510 -308q-220 0 -344.5 127t-124.5 355q0 212 84.5 394t232.5 290t324 108q217 0 338.5 -127.5t121.5 -341.5q0 -56 -10 -129.5t-24 -118.5zM352 729h488
q10 35 10 94q0 101 -53.5 161t-139.5 60q-64 0 -120.5 -34t-93.5 -85.5t-60 -102t-31 -93.5zM520 1343l230 295h337l-354 -295h-213z" />
    <glyph glyph-name="ecircumflex" unicode="&#xea;" horiz-adv-x="1214" 
d="M1094 532h-779q-10 -39 -10 -110q0 -112 56.5 -177t146.5 -65q74 0 154 58.5t108 128.5l236 -84q-180 -308 -510 -308q-220 0 -344.5 127t-124.5 355q0 212 84.5 394t232.5 290t324 108q217 0 338.5 -127.5t121.5 -341.5q0 -56 -10 -129.5t-24 -118.5zM352 729h488
q10 35 10 94q0 101 -53.5 161t-139.5 60q-64 0 -120.5 -34t-93.5 -85.5t-60 -102t-31 -93.5zM887 1343l-115 175l-182 -175h-240l293 295h270l181 -295h-207z" />
    <glyph glyph-name="edieresis" unicode="&#xeb;" horiz-adv-x="1214" 
d="M1094 532h-779q-10 -39 -10 -110q0 -112 56.5 -177t146.5 -65q74 0 154 58.5t108 128.5l236 -84q-180 -308 -510 -308q-220 0 -344.5 127t-124.5 355q0 212 84.5 394t232.5 290t324 108q217 0 338.5 -127.5t121.5 -341.5q0 -56 -10 -129.5t-24 -118.5zM352 729h488
q10 35 10 94q0 101 -53.5 161t-139.5 60q-64 0 -120.5 -34t-93.5 -85.5t-60 -102t-31 -93.5zM379 1372l43 219h299l-43 -219h-299zM809 1372l43 219h299l-43 -219h-299z" />
    <glyph glyph-name="igrave" unicode="&#xec;" 
d="M-6 0l237 1225h299l-237 -1225h-299zM340 1343l-315 295h325l201 -295h-211z" />
    <glyph glyph-name="iacute" unicode="&#xed;" 
d="M-6 0l237 1225h299l-237 -1225h-299zM227 1343l230 295h338l-355 -295h-213z" />
    <glyph glyph-name="icircumflex" unicode="&#xee;" 
d="M-6 0l237 1225h299l-237 -1225h-299zM563 1343l-114 175l-183 -175h-239l292 295h271l180 -295h-207z" />
    <glyph glyph-name="idieresis" unicode="&#xef;" 
d="M-6 0l237 1225h299l-237 -1225h-299zM55 1372l43 219h299l-43 -219h-299zM485 1372l43 219h299l-43 -219h-299z" />
    <glyph glyph-name="eth" unicode="&#xf0;" horiz-adv-x="1251" 
d="M864 713q0 250 -213 250q-66 0 -123 -38.5t-95.5 -99t-66 -135t-40.5 -146.5t-13 -134q0 -238 211 -238q72 0 132 41.5t97 104t63.5 138t37 141t10.5 116.5zM774 1513l242 113l78 -102l-230 -105q287 -323 287 -669q0 -154 -44 -293t-124.5 -246.5t-206 -171.5
t-278.5 -64q-121 0 -213.5 37t-147.5 103t-82.5 149t-27.5 182q0 129 41 254t113 224.5t182.5 161t238.5 61.5q106 0 191 -57l4 4q-60 120 -158 221l-246 -115l-78 98l228 107q-57 51 -127 100l207 133q73 -54 151 -125z" />
    <glyph glyph-name="ntilde" unicode="&#xf1;" horiz-adv-x="1290" 
d="M2 0l238 1225h299l-33 -172h4q109 94 221 145t193 51q107 0 182.5 -64t75.5 -184q0 -70 -26 -217t-152 -784h-299q18 89 49 240q115 562 119 607l1 23q0 129 -118 129q-71 0 -151 -45.5t-138 -105.5l-166 -848h-299zM532 1360h-135q27 137 88 196.5t160 59.5
q49 0 104.5 -22t100 -44t65.5 -22q72 0 97 92h135q-25 -138 -86 -197t-162 -59q-49 0 -104 22t-99.5 44t-66.5 22q-68 0 -97 -92z" />
    <glyph glyph-name="ograve" unicode="&#xf2;" horiz-adv-x="1251" 
d="M27 438q0 117 26.5 232t81.5 219.5t132.5 184.5t187 127.5t237.5 47.5q97 0 184.5 -30t155.5 -85t108 -141t40 -190q0 -122 -26.5 -240t-82 -224.5t-134 -187.5t-191.5 -128.5t-246 -47.5q-120 0 -212.5 38t-148.5 103.5t-84 147t-28 174.5zM326 416q0 -108 56 -168
t134 -60q75 0 138 42t104 107t69.5 146.5t41 157.5t12.5 143q0 75 -18 127t-50 78t-65.5 36.5t-73.5 10.5q-72 0 -132 -40.5t-99 -105.5t-66 -148t-39 -165.5t-12 -160.5zM733 1343l-315 295h325l201 -295h-211z" />
    <glyph glyph-name="oacute" unicode="&#xf3;" horiz-adv-x="1251" 
d="M27 438q0 117 26.5 232t81.5 219.5t132.5 184.5t187 127.5t237.5 47.5q97 0 184.5 -30t155.5 -85t108 -141t40 -190q0 -122 -26.5 -240t-82 -224.5t-134 -187.5t-191.5 -128.5t-246 -47.5q-120 0 -212.5 38t-148.5 103.5t-84 147t-28 174.5zM326 416q0 -108 56 -168
t134 -60q75 0 138 42t104 107t69.5 146.5t41 157.5t12.5 143q0 75 -18 127t-50 78t-65.5 36.5t-73.5 10.5q-72 0 -132 -40.5t-99 -105.5t-66 -148t-39 -165.5t-12 -160.5zM539 1343l229 295h338l-354 -295h-213z" />
    <glyph glyph-name="ocircumflex" unicode="&#xf4;" horiz-adv-x="1251" 
d="M27 438q0 117 26.5 232t81.5 219.5t132.5 184.5t187 127.5t237.5 47.5q97 0 184.5 -30t155.5 -85t108 -141t40 -190q0 -122 -26.5 -240t-82 -224.5t-134 -187.5t-191.5 -128.5t-246 -47.5q-120 0 -212.5 38t-148.5 103.5t-84 147t-28 174.5zM326 416q0 -108 56 -168
t134 -60q75 0 138 42t104 107t69.5 146.5t41 157.5t12.5 143q0 75 -18 127t-50 78t-65.5 36.5t-73.5 10.5q-72 0 -132 -40.5t-99 -105.5t-66 -148t-39 -165.5t-12 -160.5zM905 1343l-114 175l-183 -175h-239l293 295h270l180 -295h-207z" />
    <glyph glyph-name="otilde" unicode="&#xf5;" horiz-adv-x="1251" 
d="M27 438q0 117 26.5 232t81.5 219.5t132.5 184.5t187 127.5t237.5 47.5q97 0 184.5 -30t155.5 -85t108 -141t40 -190q0 -122 -26.5 -240t-82 -224.5t-134 -187.5t-191.5 -128.5t-246 -47.5q-120 0 -212.5 38t-148.5 103.5t-84 147t-28 174.5zM326 416q0 -108 56 -168
t134 -60q75 0 138 42t104 107t69.5 146.5t41 157.5t12.5 143q0 75 -18 127t-50 78t-65.5 36.5t-73.5 10.5q-72 0 -132 -40.5t-99 -105.5t-66 -148t-39 -165.5t-12 -160.5zM539 1360h-136q27 137 88 196.5t160 59.5q49 0 104.5 -22t100.5 -44t66 -22q71 0 96 92h135
q-25 -138 -86 -197t-162 -59q-49 0 -104 22t-99.5 44t-66.5 22q-67 0 -96 -92z" />
    <glyph glyph-name="odieresis" unicode="&#xf6;" horiz-adv-x="1251" 
d="M27 438q0 117 26.5 232t81.5 219.5t132.5 184.5t187 127.5t237.5 47.5q97 0 184.5 -30t155.5 -85t108 -141t40 -190q0 -122 -26.5 -240t-82 -224.5t-134 -187.5t-191.5 -128.5t-246 -47.5q-120 0 -212.5 38t-148.5 103.5t-84 147t-28 174.5zM326 416q0 -108 56 -168
t134 -60q75 0 138 42t104 107t69.5 146.5t41 157.5t12.5 143q0 75 -18 127t-50 78t-65.5 36.5t-73.5 10.5q-72 0 -132 -40.5t-99 -105.5t-66 -148t-39 -165.5t-12 -160.5zM397 1372l43 219h299l-43 -219h-299zM827 1372l43 219h299l-43 -219h-299z" />
    <glyph glyph-name="divide" unicode="&#xf7;" horiz-adv-x="1228" 
d="M66 420v196h1036v-196h-1036zM418 942q0 69 48.5 117.5t117.5 48.5t117.5 -48.5t48.5 -117.5t-48.5 -117.5t-117.5 -48.5t-117.5 48.5t-48.5 117.5zM418 94q0 69 48.5 117.5t117.5 48.5t117.5 -48.5t48.5 -117.5t-48.5 -117.5t-117.5 -48.5t-117.5 48.5t-48.5 117.5z" />
    <glyph glyph-name="oslash" unicode="&#xf8;" horiz-adv-x="1251" 
d="M881 825l-541 -503q23 -63 71 -98.5t105 -35.5q87 0 158 55.5t115 147t68 203.5t24 231zM1063 1106l154 143l55 -59l-158 -150q66 -101 66 -237q0 -122 -26.5 -240t-82 -224.5t-134 -187.5t-191.5 -128.5t-246 -47.5q-243 0 -369 152l-154 -143l-55 59l162 152
q-57 106 -57 243q0 117 26.5 232t81.5 219.5t132.5 184.5t187 127.5t237.5 47.5q225 0 371 -143zM326 420l534 498q-44 118 -186 118q-71 0 -130.5 -40.5t-98.5 -104.5t-66.5 -146.5t-39.5 -164t-13 -160.5z" />
    <glyph glyph-name="ugrave" unicode="&#xf9;" horiz-adv-x="1251" 
d="M754 377l166 848h299l-238 -1225h-299l33 172h-4q-101 -94 -212 -145.5t-192 -51.5q-69 0 -125.5 26.5t-94.5 90t-38 156.5q0 52 26.5 197.5t151.5 779.5h299q-161 -788 -167 -831q-3 -22 -3 -40q0 -129 119 -129q72 0 152 47t127 105zM733 1343l-315 295h325l201 -295
h-211z" />
    <glyph glyph-name="uacute" unicode="&#xfa;" horiz-adv-x="1251" 
d="M754 377l166 848h299l-238 -1225h-299l33 172h-4q-101 -94 -212 -145.5t-192 -51.5q-69 0 -125.5 26.5t-94.5 90t-38 156.5q0 52 26.5 197.5t151.5 779.5h299q-161 -788 -167 -831q-3 -22 -3 -40q0 -129 119 -129q72 0 152 47t127 105zM539 1343l229 295h338l-354 -295
h-213z" />
    <glyph glyph-name="ucircumflex" unicode="&#xfb;" horiz-adv-x="1251" 
d="M754 377l166 848h299l-238 -1225h-299l33 172h-4q-101 -94 -212 -145.5t-192 -51.5q-69 0 -125.5 26.5t-94.5 90t-38 156.5q0 52 26.5 197.5t151.5 779.5h299q-161 -788 -167 -831q-3 -22 -3 -40q0 -129 119 -129q72 0 152 47t127 105zM905 1343l-114 175l-183 -175h-239
l293 295h270l180 -295h-207z" />
    <glyph glyph-name="udieresis" unicode="&#xfc;" horiz-adv-x="1251" 
d="M754 377l166 848h299l-238 -1225h-299l33 172h-4q-101 -94 -212 -145.5t-192 -51.5q-69 0 -125.5 26.5t-94.5 90t-38 156.5q0 52 26.5 197.5t151.5 779.5h299q-161 -788 -167 -831q-3 -22 -3 -40q0 -129 119 -129q72 0 152 47t127 105zM385 1372l43 219h299l-43 -219
h-299zM815 1372l43 219h299l-43 -219h-299z" />
    <glyph glyph-name="yacute" unicode="&#xfd;" horiz-adv-x="1138" 
d="M289 20l-197 1205h309l60 -535q16 -150 16 -393h8q93 234 160 371l279 557h309l-727 -1354q-151 -285 -416 -285q-125 0 -207 31l58 223q16 -8 50 -18t56 -10q87 0 139 45t103 163zM481 1343l230 295h338l-355 -295h-213z" />
    <glyph glyph-name="thorn" unicode="&#xfe;" horiz-adv-x="1290" 
d="M473 889l-111 -565q48 -70 98.5 -103t112.5 -33q76 0 140 57.5t103.5 148t61 194t21.5 203.5q0 115 -48.5 174t-133.5 59q-52 0 -107.5 -29.5t-136.5 -105.5zM-74 -399l385 1990h299l-98 -510h4q55 75 149 121.5t189 46.5q67 0 126 -25t109 -76.5t79.5 -141.5t29.5 -209
q0 -153 -40 -301.5t-109 -263.5t-169 -186t-212 -71q-113 0 -192 40t-146 128l-105 -542h-299z" />
    <glyph glyph-name="ydieresis" unicode="&#xff;" horiz-adv-x="1138" 
d="M289 20l-197 1205h309l60 -535q16 -150 16 -393h8q93 234 160 371l279 557h309l-727 -1354q-151 -285 -416 -285q-125 0 -207 31l58 223q16 -8 50 -18t56 -10q87 0 139 45t103 163zM340 1372l43 219h299l-43 -219h-299zM770 1372l43 219h299l-43 -219h-299z" />
    <glyph glyph-name="dotlessi" unicode="&#x131;" 
d="M-6 0l237 1225h299l-237 -1225h-299z" />
    <glyph glyph-name="Lslash" unicode="&#x141;" horiz-adv-x="1062" 
d="M485 868l414 242l-33 -164l-413 -239l-91 -465h580l-47 -242h-887l96 504l-151 -88l33 164l151 88l154 790h307z" />
    <glyph glyph-name="lslash" unicode="&#x142;" 
d="M502 1075l162 105l-33 -166l-162 -103l-176 -911h-299l135 698l-162 -102l33 166l162 100l141 729h299z" />
    <glyph glyph-name="OE" unicode="&#x152;" horiz-adv-x="1933" 
d="M1190 233h563l-45 -233h-981q-301 0 -473 151t-172 449q0 133 36.5 260t110.5 239t177.5 196t247 133t309.5 49q81 0 213 -11q93 -8 210 -8h578l-45 -233h-537l-69 -359h504l-45 -233h-504zM897 242l190 983q-64 10 -141 10q-109 0 -201 -36.5t-154 -97t-106 -139.5
t-64 -162t-20 -167q0 -74 12 -131.5t33 -98.5t56 -70t73 -46.5t92.5 -27.5t107 -13.5t122.5 -3.5z" />
    <glyph glyph-name="oe" unicode="&#x153;" horiz-adv-x="2009" 
d="M881 825q0 94 -58.5 152.5t-148.5 58.5q-72 0 -132 -40.5t-99 -105.5t-66 -148t-39 -165.5t-12 -160.5q0 -108 56 -168t134 -60q86 0 157.5 57t115.5 149.5t68 204t24 226.5zM27 438q0 117 26.5 232t81.5 219.5t132.5 184.5t187 127.5t237.5 47.5q295 0 389 -196
q70 100 173.5 148t220.5 48q217 0 338.5 -127.5t121.5 -341.5q0 -56 -10 -129.5t-24 -118.5h-779q-10 -39 -10 -110q0 -112 56.5 -177t146.5 -65q74 0 154 58.5t108 128.5l235 -84q-180 -308 -509 -308q-69 0 -125 9t-108.5 30.5t-92.5 61t-64 96.5q-73 -90 -184 -143.5
t-229 -53.5q-120 0 -212.5 38t-148.5 103.5t-84 147t-28 174.5zM1159 729h488q10 35 10 94q0 101 -53.5 161t-139.5 60q-64 0 -120.5 -34t-93.5 -85.5t-60 -102t-31 -93.5z" />
    <glyph glyph-name="Scaron" unicode="&#x160;" horiz-adv-x="1251" 
d="M-8 313l276 88q21 -105 81 -158t175 -53q107 0 182.5 62.5t75.5 150.5q0 74 -53.5 118t-241.5 132q-175 82 -247 171t-72 216q0 59 17.5 119t60 121t105 107.5t160.5 76t218 29.5q114 0 204.5 -26.5t146 -71.5t85.5 -99t35 -114l-278 -78q0 78 -58.5 124t-148.5 46
q-110 0 -175 -59t-65 -134q0 -55 34 -97.5t88 -71.5t119.5 -56.5t131.5 -61.5t120 -76.5t88 -110.5t34 -156q0 -70 -20 -137t-66 -131t-113 -112t-168.5 -77t-224.5 -29q-91 0 -168 17t-147.5 54.5t-120 108t-70.5 168.5zM758 1698l188 174h228l-289 -295h-271l-176 295h197
z" />
    <glyph glyph-name="scaron" unicode="&#x161;" horiz-adv-x="1062" 
d="M-39 287l260 75q0 -77 55.5 -129.5t137.5 -52.5q55 0 98.5 17.5t68 44.5t36.5 56.5t12 57.5q0 43 -29 72.5t-75.5 47.5t-102 34.5t-111.5 41t-102.5 58t-75.5 94t-29 142.5q0 80 33.5 152t94.5 128.5t155.5 89.5t208.5 33q176 0 284 -80.5t142 -203.5l-252 -74
q-12 68 -56.5 110.5t-127.5 42.5q-96 0 -145.5 -49.5t-49.5 -111.5q0 -36 23.5 -62.5t61.5 -42t87 -32.5t100.5 -31.5t100.5 -40t87 -58t61.5 -86t23.5 -122.5q0 -87 -34 -164.5t-98 -138t-166.5 -95.5t-229.5 -35q-193 0 -298.5 79t-148.5 233zM664 1464l188 174h227
l-288 -295h-271l-176 295h197z" />
    <glyph glyph-name="Ydieresis" unicode="&#x178;" horiz-adv-x="1366" 
d="M473 559l-344 899h328l166 -469q16 -46 47 -176h8q78 128 117 182l333 463h359l-705 -899l-104 -559h-307zM455 1606l43 219h299l-43 -219h-299zM885 1606l43 219h299l-43 -219h-299z" />
    <glyph glyph-name="Zcaron" unicode="&#x17d;" horiz-adv-x="1175" 
d="M-33 268l875 949h-666l47 241h1026l-51 -264l-891 -952h715l-47 -242h-1059zM719 1698l188 174h228l-289 -295h-271l-176 295h197z" />
    <glyph glyph-name="zcaron" unicode="&#x17e;" horiz-adv-x="1062" 
d="M-55 217l741 811q-106 -8 -156 -8h-409l39 205h927l-40 -215l-750 -813q106 8 156 8h454l-39 -205h-966zM664 1464l188 174h227l-288 -295h-271l-176 295h197z" />
    <glyph glyph-name="florin" unicode="&#x192;" horiz-adv-x="1212" 
d="M-57 -229l106 176q56 -27 94 -27q53 0 92 42t62 142l147 625h-231l31 164h239l64 276q36 154 137.5 239t255.5 85q142 0 223 -57l-114 -172q-53 32 -101 32q-49 0 -85 -36.5t-50 -96.5l-68 -270h238l-31 -164h-245l-156 -659q-34 -146 -135.5 -250.5t-235.5 -104.5
q-108 0 -237 56z" />
    <glyph glyph-name="circumflex" unicode="&#x2c6;" 
d="M563 1343l-114 175l-183 -175h-239l292 295h271l180 -295h-207z" />
    <glyph glyph-name="caron" unicode="&#x2c7;" 
d="M416 1464l188 174h227l-288 -295h-271l-176 295h197z" />
    <glyph glyph-name="uni02C9" unicode="&#x2c9;" 
d="M98 1419l29 152h643l-29 -152h-643z" />
    <glyph glyph-name="breve" unicode="&#x2d8;" 
d="M102 1638h134q8 -75 53 -116t143 -41q172 0 232 157h141q-36 -129 -134 -215t-253 -86q-134 0 -223.5 78t-92.5 223z" />
    <glyph glyph-name="dotaccent" unicode="&#x2d9;" 
d="M260 1372l43 219h299l-43 -219h-299z" />
    <glyph glyph-name="ring" unicode="&#x2da;" 
d="M229 1550q0 89 63 152t152 63t152 -63t63 -152t-63 -152t-152 -63t-152 63t-63 152zM555 1550q0 46 -32.5 78.5t-78.5 32.5t-78 -32.5t-32 -78.5t32 -78t78 -32t78.5 32t32.5 78z" />
    <glyph glyph-name="ogonek" unicode="&#x2db;" 
d="M223 63h152q-129 -88 -183.5 -148t-54.5 -108q0 -30 23.5 -54.5t68.5 -24.5q59 0 140 36l-25 -135q-60 -27 -132 -43t-116 -16q-84 0 -139 44.5t-55 111.5q0 88 76.5 165t244.5 172z" />
    <glyph glyph-name="tilde" unicode="&#x2dc;" 
d="M197 1360h-136q27 137 88 196.5t160 59.5q49 0 104.5 -22t100.5 -44t66 -22q71 0 96 92h135q-25 -138 -86 -197t-162 -59q-49 0 -104 22t-99.5 44t-66.5 22q-67 0 -96 -92z" />
    <glyph glyph-name="hungarumlaut" unicode="&#x2dd;" 
d="M-18 1343l229 295h338l-354 -295h-213zM412 1343l229 295h338l-354 -295h-213z" />
    <glyph glyph-name="uni03A9" unicode="&#x3a9;" horiz-adv-x="1548" 
d="M274 197l2 6q-96 103 -141 256.5t-4 345.5q40 187 156 342.5t287.5 246.5t361.5 91q87 0 162 -20t131.5 -56t101 -85t72 -108.5t42 -125.5t13.5 -135.5t-16 -139.5q-41 -195 -155 -354t-253 -258l-2 -6h307l-41 -197h-563l31 145q140 77 253.5 233.5t162.5 387.5
q15 80 17 154.5t-19 141t-56.5 116t-95 78t-135.5 28.5q-184 0 -329 -149.5t-193 -378.5q-47 -215 0.5 -378t152.5 -233l-30 -145h-562l41 197h301z" />
    <glyph glyph-name="uni03BC" unicode="&#x3bc;" horiz-adv-x="1251" 
d="M682 0l33 145l-4 5q-104 -175 -248 -175q-51 0 -94.5 28.5t-63.5 68.5h-4l-88 -471h-299l313 1624h299q-161 -788 -167 -831q-3 -22 -3 -40q0 -51 43 -98t111 -47q71 0 140 47.5t104 120.5l166 848h299l-238 -1225h-299z" />
    <glyph glyph-name="pi" unicode="&#x3c0;" horiz-adv-x="1284" 
d="M1264 891h-158l-123 -576q-43 -196 -39 -315h-237q-24 63 26 301l125 590h-321q-54 -207 -152 -477.5t-182 -413.5h-238q90 173 187 438.5t141 452.5q-144 0 -225 -23l4 160q110 68 358 68h897z" />
    <glyph glyph-name="endash" unicode="&#x2013;" horiz-adv-x="1024" 
d="M-43 516l41 197h1024l-41 -197h-1024z" />
    <glyph glyph-name="emdash" unicode="&#x2014;" horiz-adv-x="2048" 
d="M-43 516l41 197h2048l-41 -197h-2048z" />
    <glyph glyph-name="quoteleft" unicode="&#x2018;" horiz-adv-x="606" 
d="M160 1071l284 520h218l-240 -520h-262z" />
    <glyph glyph-name="quoteright" unicode="&#x2019;" horiz-adv-x="606" 
d="M150 1071l239 520h262l-284 -520h-217z" />
    <glyph glyph-name="quotesinglbase" unicode="&#x201a;" horiz-adv-x="606" 
d="M-86 -250l240 520h262l-285 -520h-217z" />
    <glyph glyph-name="quotedblleft" unicode="&#x201c;" horiz-adv-x="1024" 
d="M147 1071l285 520h217l-239 -520h-263zM590 1071l284 520h218l-240 -520h-262z" />
    <glyph glyph-name="quotedblright" unicode="&#x201d;" horiz-adv-x="1024" 
d="M166 1071l240 520h262l-285 -520h-217zM608 1071l240 520h262l-285 -520h-217z" />
    <glyph glyph-name="quotedblbase" unicode="&#x201e;" horiz-adv-x="1024" 
d="M-135 -250l239 520h263l-285 -520h-217zM307 -250l240 520h262l-285 -520h-217z" />
    <glyph glyph-name="dagger" unicode="&#x2020;" horiz-adv-x="1212" 
d="M528 1065l78 393h287l-78 -393h375l-45 -234h-375l-209 -1087h-287l209 1087h-372l45 234h372z" />
    <glyph glyph-name="daggerdbl" unicode="&#x2021;" horiz-adv-x="1212" 
d="M399 328l107 546h-361l43 226h361l69 358h263l-70 -358h360l-43 -226h-360l-106 -546h360l-43 -226h-361l-69 -358h-262l69 358h-360l43 226h360z" />
    <glyph glyph-name="bullet" unicode="&#x2022;" horiz-adv-x="1024" 
d="M147 729q0 151 107 258t258 107t258 -107t107 -258t-107 -257.5t-258 -106.5t-258 106.5t-107 257.5z" />
    <glyph glyph-name="ellipsis" unicode="&#x2026;" horiz-adv-x="2048" 
d="M184 0l54 270h262l-54 -270h-262zM866 0l54 270h262l-54 -270h-262zM1548 0l54 270h262l-54 -270h-262z" />
    <glyph glyph-name="perthousand" unicode="&#x2030;" horiz-adv-x="2238" 
d="M590 1245q0 52 -26.5 84.5t-78.5 32.5q-44 0 -80 -31t-57.5 -76t-35.5 -100.5t-19.5 -101t-5.5 -80.5q0 -52 26 -84.5t78 -32.5q55 0 96.5 45t62 111.5t30.5 126.5t10 106zM125 -25l1079 1518h174l-1079 -1518h-174zM1227 496q0 52 -26.5 84t-78.5 32q-44 0 -80 -31
t-57.5 -76t-35.5 -100.5t-19.5 -101t-5.5 -80.5q0 -52 26 -84.5t78 -32.5q44 0 80 31t57.5 76t36 101t20 101.5t5.5 80.5zM102 997q0 65 13.5 132t45 133t77 117t115 82.5t153.5 31.5q121 0 194.5 -71t73.5 -201q0 -65 -13.5 -132t-45 -133t-76.5 -117t-114 -82.5
t-152 -31.5q-122 0 -196.5 71t-74.5 201zM739 248q0 65 13.5 131.5t45 132.5t77 117t115 82.5t153.5 31.5q121 0 194.5 -71t73.5 -201q0 -65 -13.5 -132t-45 -133t-76.5 -117t-114 -82.5t-152 -31.5q-122 0 -196.5 71.5t-74.5 201.5zM1485 248q0 65 13.5 131.5t45 132.5
t76.5 117t114.5 82.5t153.5 31.5q121 0 195 -71t74 -201q0 -65 -13.5 -132t-45 -133t-76.5 -117t-114.5 -82.5t-152.5 -31.5q-122 0 -196 71.5t-74 201.5zM1972 496q0 52 -26 84t-78 32q-55 0 -96.5 -45t-62 -111.5t-30.5 -126.5t-10 -106q0 -52 26.5 -84.5t78.5 -32.5
q44 0 80 31t57.5 76t35.5 101t19.5 101.5t5.5 80.5z" />
    <glyph glyph-name="guilsinglleft" unicode="&#x2039;" horiz-adv-x="645" 
d="M31 653l415 449l150 -123l-311 -361l182 -399l-180 -92z" />
    <glyph glyph-name="guilsinglright" unicode="&#x203a;" horiz-adv-x="645" 
d="M313 610l-182 400l180 92l256 -527l-415 -448l-150 123z" />
    <glyph glyph-name="fraction" unicode="&#x2044;" horiz-adv-x="342" 
d="M-340 -49l862 1567h160l-862 -1567h-160z" />
    <glyph glyph-name="Euro" unicode="&#x20ac;" horiz-adv-x="1212" 
d="M178 961h-102l-88 -132h147q-12 -47 -26 -122h-82l-88 -132h151q-19 -246 64 -387q123 -223 440 -223q141 0 283 45q100 34 176 74l57 293q-85 -70 -197 -119q-129 -59 -249 -59q-137 0 -207 98q-59 90 -43 278h381l88 132h-451q0 1 25 122h508l88 132h-553
q46 121 135 206q55 51 108.5 69.5t122.5 18.5q95 0 166 -28q82 -37 139 -88l162 241q-82 46 -164 72q-122 41 -262 41q-286 0 -485 -176q-162 -146 -244 -356z" />
    <glyph glyph-name="afii61289" unicode="&#x2113;" horiz-adv-x="1097" 
d="M872 375l82 -103q-212 -288 -501 -288q-91 0 -156.5 28t-99 77.5t-46 111t-4.5 135.5q0 4 1.5 11.5t1.5 10.5q-15 -10 -61 -41t-71 -47l-34 131q181 128 204 146l113 532q57 269 190 401t295 132q75 0 127 -29t76 -79t29.5 -117t-12.5 -142q-39 -182 -188.5 -361.5
t-403.5 -377.5l-15 -78q-24 -121 20 -185.5t130 -64.5q85 0 170.5 57t152.5 140zM539 1094l-76 -365q335 299 383 520q41 189 -86 189q-60 0 -121 -81t-100 -263z" />
    <glyph glyph-name="trademark" unicode="&#x2122;" horiz-adv-x="2048" 
d="M1411 903l211 555h279v-862h-185v629h-4l-231 -629h-138l-231 629h-4v-629h-184v862h278zM373 596v711h-246v151h688v-151h-246v-711h-196z" />
    <glyph glyph-name="Omega" unicode="&#x2126;" horiz-adv-x="1548" 
d="M274 197l2 6q-96 103 -141 256.5t-4 345.5q40 187 156 342.5t287.5 246.5t361.5 91q87 0 162 -20t131.5 -56t101 -85t72 -108.5t42 -125.5t13.5 -135.5t-16 -139.5q-41 -195 -155 -354t-253 -258l-2 -6h307l-41 -197h-563l31 145q140 77 253.5 233.5t162.5 387.5
q15 80 17 154.5t-19 141t-56.5 116t-95 78t-135.5 28.5q-184 0 -329 -149.5t-193 -378.5q-47 -215 0.5 -378t152.5 -233l-30 -145h-562l41 197h301z" />
    <glyph glyph-name="estimated" unicode="&#x212e;" horiz-adv-x="1988" 
d="M1917 713h-1366q-10 0 -10 -8v-414q0 -25 16 -47q103 -106 236.5 -166t281.5 -60q159 0 299.5 67.5t243.5 184.5h121q-115 -135 -291.5 -214t-376.5 -79q-171 0 -326.5 60t-268.5 161t-180 241t-67 294q0 155 67 295.5t180 242.5t268.5 162t326.5 60q172 0 328.5 -60
t270 -162t180.5 -242.5t67 -295.5v-20zM1606 766v416q0 31 -21 49q-101 101 -233 159t-277 58q-147 0 -280 -59.5t-234 -163.5q-20 -20 -20 -51v-408q0 -12 10 -12h1046q9 0 9 12z" />
    <glyph glyph-name="partialdiff" unicode="&#x2202;" horiz-adv-x="1226" 
d="M350 1350l-35 178q185 121 414 121q160 0 271.5 -90t156 -267.5t-11.5 -441.5q-55 -254 -165.5 -448.5t-270.5 -306t-347 -111.5q-73 0 -132.5 21t-99 57.5t-66.5 84.5t-38 103.5t-11 113.5t12 115q34 162 123.5 287t208.5 190.5t247 65.5q65 0 120 -20t89 -50.5
t54.5 -58.5t29.5 -53h2q9 30 19 75q25 111 16 208t-41.5 170t-94.5 115t-143 42q-160 0 -307 -100zM428 184h2q63 0 126.5 40t115.5 105.5t93.5 144t68.5 161.5q-7 68 -65.5 131t-156.5 63q-114 0 -214.5 -105.5t-131.5 -250.5q-25 -124 19.5 -206.5t142.5 -82.5z" />
    <glyph glyph-name="Delta" unicode="&#x2206;" horiz-adv-x="1417" 
d="M-98 0l30 145l797 1352h291l211 -1350l-33 -147h-1296zM197 197h778l-117 665q-4 47 -23.5 187t-21.5 190h-8q-17 -37 -88.5 -162t-100.5 -182z" />
    <glyph glyph-name="product" unicode="&#x220f;" horiz-adv-x="1695" 
d="M1645 1243h-228v-1444h-239v1444h-506v-1444h-242v1444h-225v219h1440v-219z" />
    <glyph glyph-name="summation" unicode="&#x2211;" horiz-adv-x="1355" 
d="M1315 -203h-1114v156l536 676l-514 665v168h1057v-207h-725v-8l459 -581l-504 -639v-7h805v-223z" />
    <glyph glyph-name="minus" unicode="&#x2212;" horiz-adv-x="1228" 
d="M66 420v196h1036v-196h-1036z" />
    <glyph glyph-name="uni2215" unicode="&#x2215;" horiz-adv-x="342" 
d="M-340 -49l862 1567h160l-862 -1567h-160z" />
    <glyph glyph-name="uni2219" unicode="&#x2219;" horiz-adv-x="606" 
d="M139 625q0 60 42 101.5t102 41.5t101.5 -41.5t41.5 -101.5t-41.5 -102t-101.5 -42t-102 42t-42 102z" />
    <glyph glyph-name="radical" unicode="&#x221a;" horiz-adv-x="1423" 
d="M1442 1749l-486 -2048h-198l-328 930l-160 -64l-43 138l348 139l240 -703q7 -30 21.5 -88.5t19.5 -81.5l4 -2q9 64 33 181l377 1599h172z" />
    <glyph glyph-name="infinity" unicode="&#x221e;" horiz-adv-x="1699" 
d="M1597 606v-2q0 -162 -100 -261t-237 -99q-98 0 -188.5 55.5t-194.5 187.5q-98 -118 -189 -180.5t-209 -62.5q-136 0 -234 99t-98 251q0 156 100 257t251 101q110 0 201 -62t186 -179q87 98 124 131q123 110 265 110q141 -2 232 -97t91 -249zM498 379h2q35 0 72 14.5
t62 30t62.5 52t52 53t52.5 59.5q-85 110 -123 147q-89 84 -191 84q-90 0 -144 -64t-54 -163q0 -89 59 -151t150 -62zM1260 819h-3q-38 0 -74 -13.5t-71.5 -42.5t-57.5 -50t-57.5 -61t-44.5 -50q105 -126 170.5 -174.5t143.5 -48.5q87 0 139.5 67t52.5 148q0 100 -55 162.5
t-143 62.5z" />
    <glyph glyph-name="integral" unicode="&#x222b;" horiz-adv-x="978" 
d="M940 1776l-27 -164q-36 18 -79 18q-70 0 -107 -53q-35 -41 -49 -127t-14 -229q0 -164 16 -496.5t16 -519.5q0 -282 -82 -418q-39 -72 -109 -107.5t-151 -35.5q-93 0 -159 34l32 172q60 -24 97 -24q61 0 94 45q32 40 47.5 116.5t15.5 217.5q0 188 -15 528t-15 512
q0 181 28.5 288.5t95.5 176.5q42 45 106 68.5t132 23.5q73 0 127 -26z" />
    <glyph glyph-name="approxequal" unicode="&#x2248;" horiz-adv-x="1234" 
d="M1057 940l88 -82q-52 -99 -125 -156t-162 -57q-62 0 -113.5 19.5t-132.5 66.5q-40 25 -63 37.5t-57.5 23.5t-67.5 11q-35 0 -65 -12t-56.5 -37t-43.5 -47t-42 -58l-90 80q48 96 131 154.5t178 58.5q25 0 50 -4t43 -9t41.5 -15.5t34.5 -16.5t34 -19t29 -16q8 -4 31 -17.5
t30 -17.5t24.5 -13.5t26.5 -12.5t23.5 -7.5t27.5 -6t27 -1.5q59 0 104.5 38.5t94.5 115.5zM1057 551l88 -82q-114 -213 -289 -213q-59 0 -109.5 20t-134.5 68q-47 28 -65.5 38t-54 22t-68.5 12q-35 0 -65 -12t-56.5 -38t-43.5 -47.5t-42 -58.5l-90 82q49 95 132 154t177 59
q25 0 50.5 -4.5t42 -8.5t42 -16t33.5 -16t34.5 -19t27.5 -16q13 -7 39 -22.5t39.5 -22.5t34 -16t39.5 -13t40 -4q60 0 104 37t95 117z" />
    <glyph glyph-name="notequal" unicode="&#x2260;" horiz-adv-x="1273" 
d="M950 1077l-88 -194h305v-142h-360l-131 -295h491v-141h-549l-110 -248l-113 49l90 199h-299v141h357l129 295h-486v142h543l107 241z" />
    <glyph glyph-name="lessequal" unicode="&#x2264;" horiz-adv-x="1310" 
d="M1202 207l-966 473v154l964 473v-166l-819 -381v-4l821 -383v-166zM1208 -20h-983v145h983v-145z" />
    <glyph glyph-name="greaterequal" unicode="&#x2265;" horiz-adv-x="1312" 
d="M238 1307l966 -473v-154l-964 -473v166l817 383v4l-819 381v166zM1204 -20h-977v145h977v-145z" />
    <glyph glyph-name="lozenge" unicode="&#x25ca;" horiz-adv-x="1423" 
d="M1315 729l-430 -831h-195l-422 831l430 834h195zM1100 725l-264 524q-28 64 -41 119h-7q-15 -54 -40 -119l-265 -514l267 -532q25 -65 36 -113h9q20 73 39 109z" />
    </font>
</defs>
</svg>
