<?xml version="1.0" standalone="no"?>
<!DOCTYPE svg PUBLIC "-//W3C//DTD SVG 1.1//EN" "http://www.w3.org/Graphics/SVG/1.1/DTD/svg11.dtd" >
<svg xmlns="http://www.w3.org/2000/svg" xmlns:xlink="http://www.w3.org/1999/xlink" version="1.1">
<metadata>
Created by FontForge 20170731 at Tue Apr 18 07:59:37 2023
 By Aleksey,,,
Copyright (c) 1991, 2002 Adobe Systems Incorporated.  All Rights Reserved. (c) 1981, 2002 Heidelberger Druckmaschinen AG. All rights reserved.
</metadata>
<defs>
<font id="VectoraLTStd-Italic" horiz-adv-x="1138" >
  <font-face 
    font-family="Vectora LT Std Roman"
    font-weight="400"
    font-style="italic"
    font-stretch="normal"
    units-per-em="2048"
    panose-1="2 11 5 6 3 5 3 9 2 4"
    ascent="1591"
    descent="-457"
    x-height="1210"
    cap-height="1458"
    bbox="-340 -512 2130 1894"
    underline-thickness="102"
    underline-position="-307"
    slope="-12"
    unicode-range="U+0020-FB02"
  />
<missing-glyph horiz-adv-x="1171" 
d="M147 0v1434h1024v-1434h-1024zM659 809l349 522h-697zM721 717l348 -522v1044zM311 102h697l-349 523zM250 1239v-1044l348 522z" />
    <glyph glyph-name="fi" unicode="fi" 
d="M645 0l234 1210h180l-234 -1210h-180zM903 1415l35 176h205l-35 -176h-205zM57 0l187 971h-183l31 143h178l31 135q15 65 32.5 114.5t47.5 99t69 81.5t98.5 52t133.5 20q70 0 154 -25l-31 -145q-6 2 -22 7t-25 7.5t-23 6t-28 5t-29 1.5q-89 0 -134 -57.5t-67 -168.5
l-26 -133h229l-31 -143h-225l-186 -971h-181z" />
    <glyph glyph-name="fl" unicode="fl" 
d="M645 0l305 1591h180l-305 -1591h-180zM57 0l187 971h-183l31 143h178l31 135q15 65 32.5 114.5t47.5 99t69 81.5t98.5 52t133.5 20q58 0 145 -25l-32 -145q-6 2 -27.5 9t-31 9.5t-26.5 5.5t-32 3q-89 0 -134 -57.5t-67 -168.5l-26 -133h229l-31 -143h-225l-186 -971h-181
z" />
    <glyph glyph-name=".notdef" horiz-adv-x="1171" 
d="M147 0v1434h1024v-1434h-1024zM659 809l349 522h-697zM721 717l348 -522v1044zM311 102h697l-349 523zM250 1239v-1044l348 522z" />
    <glyph glyph-name=".null" horiz-adv-x="0" 
 />
    <glyph glyph-name="nonmarkingreturn" horiz-adv-x="682" 
 />
    <glyph glyph-name="space" unicode=" " horiz-adv-x="569" 
 />
    <glyph glyph-name="exclam" unicode="!" horiz-adv-x="645" 
d="M184 406l174 1052h205l-235 -1052h-144zM78 0l41 213h200l-43 -213h-198z" />
    <glyph glyph-name="quotedbl" unicode="&#x22;" horiz-adv-x="909" 
d="M307 1108v483h148v-483h-148zM627 1108v483h147v-483h-147z" />
    <glyph glyph-name="numbersign" unicode="#" 
d="M672 580l59 299h-258l-59 -299h258zM561 0l86 444h-258l-86 -444h-135l86 444h-227l24 136h228l59 299h-229l26 135h227l87 444h135l-86 -444h258l86 444h135l-86 -444h225l-26 -135h-224l-59 -299h225l-24 -136h-226l-86 -444h-135z" />
    <glyph glyph-name="dollar" unicode="$" 
d="M594 641l-98 -516q124 13 207 95t83 188q0 78 -43 127t-149 106zM555 866l90 469q-68 -6 -120 -31.5t-81 -62.5t-43 -77t-14 -81q0 -72 41.5 -123t126.5 -94zM-6 285l180 59q5 -40 18.5 -74t40 -66.5t73 -53.5t108.5 -25l106 555l-129 68q-96 50 -148.5 130.5
t-52.5 182.5q0 194 128 306t356 120l24 129h82l-24 -129q141 -9 235 -78.5t117 -187.5l-182 -56q-5 64 -54 112t-145 58l-98 -506l90 -43q69 -34 112.5 -63.5t80.5 -72.5t54 -100.5t17 -135.5q0 -187 -147.5 -313.5t-370.5 -129.5l-23 -123h-82l25 127q-89 7 -160 35
t-111 63t-68 79t-38 74.5t-14 58.5z" />
    <glyph glyph-name="percent" unicode="%" horiz-adv-x="1630" 
d="M104 995q0 207 119.5 350.5t292.5 143.5q53 0 102 -16.5t90.5 -49.5t66 -89t24.5 -128q0 -108 -34 -202t-90.5 -158.5t-131.5 -101.5t-156 -37q-124 0 -203.5 75.5t-79.5 212.5zM256 981q0 -68 35.5 -112t103.5 -44q67 0 118 37t79 96t41.5 122t13.5 126
q0 69 -32.5 116.5t-108.5 47.5q-65 0 -116 -42t-78.5 -105t-41.5 -126t-14 -116zM831 264q0 207 119.5 350.5t292.5 143.5q53 0 102 -16.5t90.5 -49.5t66 -89t24.5 -128q0 -216 -122.5 -358t-289.5 -142q-124 0 -203.5 75.5t-79.5 213.5zM983 250q0 -68 35.5 -112t103.5 -44
q67 0 118 37t79 96t41.5 122t13.5 126q0 69 -32.5 116.5t-108.5 47.5q-65 0 -116 -42t-78.5 -105t-41.5 -126t-14 -116zM188 -49l1102 1562h148l-1102 -1562h-148z" />
    <glyph glyph-name="ampersand" unicode="&#x26;" horiz-adv-x="1402" 
d="M1012 0l-111 147q-199 -172 -461 -172q-51 0 -102 9t-109 34.5t-102 65.5t-73 107.5t-29 154.5q0 80 29.5 151t78.5 121.5t101 85.5t108 58l70 29l-37 51q-99 139 -99 270q0 74 30.5 142t86 120.5t141 83.5t189.5 31q152 0 253 -84t101 -215q0 -80 -26.5 -145.5
t-78.5 -115t-112 -85.5t-143 -70l-58 -26l275 -367q80 80 134.5 185.5t66.5 203.5h174q-20 -117 -93 -263t-186 -251l195 -256h-213zM575 856l84 37q60 32 97 56.5t72.5 58.5t52 75t16.5 93q0 77 -54.5 123.5t-135.5 46.5q-102 0 -172 -70t-70 -170q0 -93 70 -193zM811 264
l-305 412l-68 -31q-225 -100 -225 -295q0 -112 72 -171.5t182 -59.5q90 0 182.5 41t161.5 104z" />
    <glyph glyph-name="quotesingle" unicode="'" horiz-adv-x="569" 
d="M276 1108v483h148v-483h-148z" />
    <glyph glyph-name="parenleft" unicode="(" horiz-adv-x="569" 
d="M213 -266l-35 78q-143 320 -143 630q0 149 39 301.5t104.5 281t135.5 231t147 186.5l100 110l103 -94l-76 -84q-64 -71 -122.5 -153t-122 -198t-102 -258.5t-38.5 -285.5q0 -381 96 -604l37 -82z" />
    <glyph glyph-name="parenright" unicode=")" horiz-adv-x="569" 
d="M326 1552l34 -77q144 -322 144 -631q0 -149 -39 -301.5t-104.5 -281t-135.5 -231t-147 -186.5l-101 -110l-102 94l76 84q64 71 122.5 153t122 198t102 258.5t38.5 285.5q0 381 -96 604l-37 82z" />
    <glyph glyph-name="asterisk" unicode="*" 
d="M246 1118l69 131l267 -114l49 323h151l-80 -323l316 114l18 -137l-317 -84l151 -246l-133 -84l-125 263l-219 -259l-106 82l245 250z" />
    <glyph glyph-name="plus" unicode="+" horiz-adv-x="1228" 
d="M547 0v451h-451v135h451v450h135v-450h451v-135h-451v-451h-135z" />
    <glyph glyph-name="comma" unicode="," horiz-adv-x="569" 
d="M-70 -270l217 483h205l-270 -483h-152z" />
    <glyph glyph-name="hyphen" unicode="-" horiz-adv-x="684" 
d="M53 530l31 152h498l-31 -152h-498z" />
    <glyph glyph-name="period" unicode="." horiz-adv-x="569" 
d="M47 0l41 213h201l-41 -213h-201z" />
    <glyph glyph-name="slash" unicode="/" horiz-adv-x="757" 
d="M-127 -6l885 1519l127 -49l-885 -1519z" />
    <glyph glyph-name="zero" unicode="0" 
d="M37 461q0 87 10.5 180t34.5 194t59.5 194t89.5 177.5t120 147t155.5 99t191.5 36.5q85 0 156.5 -28t128 -84.5t88 -151.5t31.5 -221q0 -87 -10.5 -180t-34.5 -194t-59.5 -194.5t-89.5 -178t-120.5 -146.5t-156 -99t-191.5 -37q-85 0 -156.5 28t-127.5 84.5t-87.5 152
t-31.5 221.5zM225 451q0 -159 52.5 -245.5t177.5 -86.5q91 0 169.5 61.5t130 158t88.5 217t53.5 237.5t16.5 221q0 77 -11.5 135.5t-37 104t-71 69t-109.5 23.5q-91 0 -169.5 -61.5t-130.5 -158t-89 -217t-53.5 -237.5t-16.5 -221z" />
    <glyph glyph-name="one" unicode="1" 
d="M446 0l240 1251l-379 -262l-82 127l510 342h172l-280 -1458h-181z" />
    <glyph glyph-name="two" unicode="2" 
d="M-57 0l30 152l691 602q126 109 183.5 189t57.5 175q0 228 -252 228q-70 0 -124.5 -22t-84.5 -51t-52 -72.5t-29 -70t-13 -59.5l-180 29q40 181 168 285t340 104q178 0 292.5 -95.5t114.5 -238.5t-56.5 -244t-217.5 -239l-614 -529h716l-30 -143h-940z" />
    <glyph glyph-name="three" unicode="3" 
d="M-12 344l180 43q1 -137 75.5 -202.5t188.5 -65.5q92 0 161.5 34.5t107 89t55.5 111.5t18 113q0 45 -13 81t-31.5 58.5t-47 38.5t-51.5 24t-53.5 12t-44 4.5t-31.5 0.5q-1 0 -94 -6l28 158q217 0 333 74.5t116 222.5q0 81 -63.5 146t-186.5 65q-60 0 -109.5 -17t-79 -38.5
t-55 -57t-35 -55t-22.5 -50.5l-166 56q15 31 24 48t33 53.5t47 59.5t62.5 53.5t82.5 48t104 30t130 12.5q200 0 311 -100.5t111 -243.5q0 -41 -10 -84t-35.5 -90.5t-64 -86.5t-101 -70.5t-139.5 -43.5v-4q240 -55 240 -295q0 -66 -19 -133.5t-61 -133t-102.5 -116.5
t-150.5 -82t-198 -31q-179 0 -301 90.5t-143 278.5z" />
    <glyph glyph-name="four" unicode="4" 
d="M543 0l53 276h-616l36 191l748 991h240l-201 -1038h201l-29 -144h-199l-53 -276h-180zM623 420l145 715q16 74 47 161l-8 2l-653 -878h469z" />
    <glyph glyph-name="five" unicode="5" 
d="M1102 1458l-31 -143h-590l-90 -418q108 37 191 37q103 0 188.5 -44t140 -137.5t54.5 -222.5q0 -114 -37 -214.5t-104.5 -176.5t-170.5 -120t-227 -44q-67 0 -123.5 15t-95 39t-69.5 57t-49 65t-31 68.5t-18 62.5t-7 50l168 43q0 -27 5 -57t21 -66.5t40.5 -65t69 -48
t101.5 -19.5q146 0 246 116t100 275q0 132 -80.5 206.5t-201.5 74.5q-91 0 -175 -32.5t-147 -78.5l168 778h754z" />
    <glyph glyph-name="six" unicode="6" 
d="M981 1458l-573 -614l4 -4q113 55 215 55q154 0 259 -106.5t105 -282.5q0 -80 -23 -156.5t-69.5 -144.5t-110.5 -119t-151.5 -81t-187.5 -30q-192 0 -304 114t-112 298q0 251 211 492l508 579h229zM457 119q86 0 154.5 36.5t109 95.5t61.5 125t21 132q0 80 -36.5 137.5
t-86.5 82t-105 24.5q-132 0 -260 -74q-36 -44 -69 -125.5t-33 -173.5q0 -111 64.5 -185.5t179.5 -74.5z" />
    <glyph glyph-name="seven" unicode="7" 
d="M25 0l893 1298h-719l30 160h930l-31 -151l-882 -1307h-221z" />
    <glyph glyph-name="eight" unicode="8" 
d="M1073 1180q0 -70 -28.5 -134.5t-73 -110.5t-88.5 -77t-86 -49l-80 -35l67 -47q73 -50 126 -134.5t53 -168.5q0 -194 -141 -321.5t-367 -127.5q-109 0 -193 27.5t-135 75t-76.5 108t-25.5 131.5q0 78 28 144.5t78 116.5t101 85.5t116 67.5l88 47q-110 68 -166.5 144.5
t-56.5 195.5q0 154 133 262.5t332 108.5q179 0 287 -83.5t108 -225.5zM782 403q0 133 -153 242l-72 51l-98 -49q-48 -24 -89 -52.5t-80.5 -68t-62 -91t-22.5 -107.5q0 -93 65.5 -151t188.5 -58q79 0 142.5 24t102 64.5t58.5 90.5t20 105zM602 856l70 33q105 49 163 115
t58 163q0 81 -63 130t-166 49q-124 0 -200.5 -64.5t-76.5 -169.5q0 -65 32.5 -114.5t102.5 -92.5z" />
    <glyph glyph-name="nine" unicode="9" 
d="M145 0l574 621l-4 4q-115 -56 -215 -56q-154 0 -259.5 106.5t-105.5 282.5q0 100 37.5 194.5t105 170t172 121t228.5 45.5q192 0 304 -114t112 -298q0 -250 -211 -491l-508 -586h-230zM324 956q0 -61 21 -109.5t54.5 -76.5t72.5 -42.5t79 -14.5q134 0 260 73
q36 44 69 125.5t33 173.5q0 111 -64 186t-179 75q-86 0 -154.5 -37t-109 -95.5t-61.5 -125t-21 -132.5z" />
    <glyph glyph-name="colon" unicode=":" horiz-adv-x="569" 
d="M258 997l41 213h201l-41 -213h-201zM66 0l40 213h201l-41 -213h-200z" />
    <glyph glyph-name="semicolon" unicode=";" horiz-adv-x="569" 
d="M-70 -270l217 483h205l-270 -483h-152zM258 997l41 213h201l-41 -213h-201z" />
    <glyph glyph-name="less" unicode="&#x3c;" horiz-adv-x="1228" 
d="M96 459v119l1037 475v-135l-869 -400l869 -399v-135z" />
    <glyph glyph-name="equal" unicode="=" horiz-adv-x="1228" 
d="M96 649v135h1037v-135h-1037zM96 252v135h1037v-135h-1037z" />
    <glyph glyph-name="greater" unicode="&#x3e;" horiz-adv-x="1228" 
d="M96 -16v135l869 399l-869 400v135l1037 -475v-119z" />
    <glyph glyph-name="question" unicode="?" horiz-adv-x="1062" 
d="M350 410l10 63q10 68 20 108.5t42 97t84 99.5l168 140q133 109 133 239q0 97 -58 143t-153 46q-57 0 -105 -21.5t-76.5 -53.5t-45 -63.5t-19.5 -56.5l-172 59q1 1 11 21.5t19.5 37.5t30 44.5t43 49.5t57.5 46.5t74.5 41t94 27.5t115.5 11q168 0 266 -80.5t98 -243.5
q0 -185 -168 -321l-184 -150q-55 -44 -77 -91t-38 -140l-10 -53h-160zM270 0l41 213h201l-41 -213h-201z" />
    <glyph glyph-name="at" unicode="@" horiz-adv-x="1638" 
d="M539 606q0 -90 45.5 -144t130.5 -54q84 0 159 74t115.5 174t40.5 186q0 92 -42 141t-124 49q-69 0 -131.5 -41.5t-104 -105.5t-65.5 -138t-24 -141zM1094 1004l47 126h127l-176 -575q-21 -68 -21 -109q0 -63 45 -63q71 0 143 72t117 181.5t45 213.5q0 116 -46.5 214
t-124.5 163.5t-181 102t-217 36.5q-134 0 -252.5 -51.5t-202 -138.5t-132 -205t-48.5 -248q0 -129 50.5 -246.5t136 -201.5t202 -133.5t244.5 -49.5q160 0 303 62.5t219 173.5h135q-97 -167 -275.5 -263t-381.5 -96q-214 0 -389.5 98t-277 272.5t-101.5 389.5q0 208 103 383
t279.5 276t385.5 101q193 0 354.5 -79.5t256.5 -224.5t95 -325q0 -125 -48 -238.5t-119.5 -188t-152 -118t-149.5 -43.5q-68 0 -108.5 34.5t-46.5 99.5h-4q-36 -42 -62 -66t-74 -46t-104 -22q-135 0 -218 93t-83 227q0 104 35 206.5t95.5 184.5t151.5 133t195 51
q163 0 230 -163z" />
    <glyph glyph-name="A" unicode="A" horiz-adv-x="1366" 
d="M-106 0l843 1458h240l270 -1458h-188l-70 387h-674l-221 -387h-200zM961 539l-107 589q-23 136 -25 162h-10q-33 -77 -112 -217l-306 -534h560z" />
    <glyph glyph-name="B" unicode="B" horiz-adv-x="1251" 
d="M12 0l281 1458h477q204 0 304 -87.5t100 -233.5q0 -149 -89.5 -247t-230.5 -124v-12q30 -3 66 -20t74.5 -50t64 -92.5t26.5 -134.5q1 -89 -32.5 -170t-97 -145.5t-167 -103t-233.5 -38.5h-543zM360 829h277q162 0 255 75t93 204q0 98 -68 148.5t-194 50.5h-270zM229 152
h318q164 0 257 84t93 210q0 54 -13.5 94t-45.5 72.5t-91.5 49t-146.5 16.5h-268z" />
    <glyph glyph-name="C" unicode="C" horiz-adv-x="1327" 
d="M1008 410l180 -48q-17 -52 -43 -100.5t-74.5 -103.5t-109.5 -95.5t-153.5 -67t-201.5 -26.5q-260 0 -398 150.5t-138 398.5q0 106 20.5 216.5t60.5 220t105 205.5t147 169.5t193 116.5t238 43q108 0 195 -28.5t138 -70t86 -94.5t48 -96t16 -82l-189 -41q0 21 -8.5 51
t-30.5 67.5t-54 68.5t-85.5 52t-118.5 21q-112 0 -207.5 -52.5t-160 -136t-110 -188.5t-66.5 -209.5t-21 -199.5q0 -220 84.5 -325t255.5 -105q82 0 150.5 24.5t116.5 67.5t81 91.5t54 105.5z" />
    <glyph glyph-name="D" unicode="D" horiz-adv-x="1366" 
d="M6 0l281 1458h407q133 0 237 -32t171.5 -86.5t112 -131t63 -160t18.5 -180.5q0 -84 -16 -170t-49 -171.5t-81 -163t-116 -144t-148.5 -115t-184 -76.5t-218.5 -28h-477zM223 152h230q104 0 193 26t154 70t117.5 104t86 126t55.5 139.5t31.5 140.5t9.5 131q0 194 -104 306
t-316 112h-234z" />
    <glyph glyph-name="E" unicode="E" 
d="M6 0l281 1458h882l-30 -151h-695l-90 -476h658l-33 -151h-653l-101 -528h709l-31 -152h-897z" />
    <glyph glyph-name="F" unicode="F" horiz-adv-x="1099" 
d="M6 0l281 1458h868l-29 -151h-680l-98 -500h645l-28 -152h-646l-124 -655h-189z" />
    <glyph glyph-name="G" unicode="G" horiz-adv-x="1366" 
d="M754 776h481l-131 -674q-8 -4 -52 -25.5t-65 -30.5t-70 -27t-89 -26.5t-99.5 -16t-122.5 -7.5q-260 0 -398 150.5t-138 398.5q0 106 20.5 216.5t60.5 220t105 205.5t147 169.5t193 116.5t238 43q108 0 195 -28.5t138 -69.5t86 -93t48 -92.5t16 -75.5l-189 -43
q0 18 -8.5 46.5t-30.5 64.5t-54 66.5t-85.5 51.5t-118.5 21q-112 0 -207.5 -52.5t-160 -136t-110 -188.5t-66.5 -209.5t-21 -199.5q0 -438 367 -438q93 0 172.5 22.5t128.5 54.5l82 435h-293z" />
    <glyph glyph-name="H" unicode="H" horiz-adv-x="1366" 
d="M891 0l133 696h-696l-133 -696h-189l281 1458h188l-117 -602h697l116 602h189l-281 -1458h-188z" />
    <glyph glyph-name="I" unicode="I" horiz-adv-x="493" 
d="M12 0l281 1458h188l-280 -1458h-189z" />
    <glyph glyph-name="J" unicode="J" horiz-adv-x="720" 
d="M-129 51l106 146q19 -19 29.5 -28t38 -20.5t59.5 -11.5q93 0 139 64t74 207l203 1050h189l-207 -1077q-39 -204 -134.5 -308t-273.5 -104q-131 0 -223 82z" />
    <glyph glyph-name="K" unicode="K" horiz-adv-x="1214" 
d="M12 0l281 1458h188l-123 -631l4 -4l707 635h254l-791 -694l537 -764h-235l-496 713l-137 -713h-189z" />
    <glyph glyph-name="L" unicode="L" horiz-adv-x="985" 
d="M12 0l281 1458h188l-250 -1298h625l-29 -160h-815z" />
    <glyph glyph-name="M" unicode="M" horiz-adv-x="1781" 
d="M674 0l-195 1135q-18 138 -20 163h-17q-4 -69 -28 -190l-213 -1108h-189l281 1458h315l160 -993q13 -87 20 -215h15q23 84 84 190l577 1018h305l-280 -1458h-189l220 1135q22 117 39 163h-19q-68 -143 -106 -211l-613 -1087h-147z" />
    <glyph glyph-name="N" unicode="N" horiz-adv-x="1441" 
d="M18 0l281 1458h242l397 -1065q22 -60 55 -192h11q5 85 28 209l203 1048h188l-280 -1458h-250l-399 1061q-38 102 -56 196h-10q0 -102 -16 -190l-205 -1067h-189z" />
    <glyph glyph-name="O" unicode="O" horiz-adv-x="1441" 
d="M70 518q0 106 20.5 216.5t60.5 220t105 205.5t147 169.5t193 116.5t238 43q132 0 235.5 -40.5t169 -114.5t99.5 -173.5t34 -220.5q0 -106 -20.5 -216.5t-60.5 -220t-105 -205.5t-147 -169.5t-194 -116.5t-239 -43q-260 0 -398 150.5t-138 398.5zM266 551
q0 -226 84.5 -332t255.5 -106q113 0 209.5 52.5t161.5 136t111 189t67 210t21 200.5q0 225 -85 330.5t-257 105.5q-112 0 -208.5 -52.5t-161 -136t-110.5 -188.5t-67 -209.5t-21 -199.5z" />
    <glyph glyph-name="P" unicode="P" horiz-adv-x="1214" 
d="M12 0l281 1458h438q219 0 341 -93t122 -278q0 -101 -33 -189t-97 -157t-170 -109t-241 -40h-338l-114 -592h-189zM453 1307l-109 -564h318q168 0 256 91.5t88 242.5q0 116 -80 173t-226 57h-247z" />
    <glyph glyph-name="Q" unicode="Q" horiz-adv-x="1441" 
d="M848 -358l-385 342q-40 8 -78.5 22.5t-85.5 40.5t-86 67t-72 95.5t-52 134t-19 174.5q0 106 20.5 216.5t60.5 220t105 205.5t147 169.5t193 116.5t238 43q132 0 235.5 -40.5t169 -114.5t99.5 -173.5t34 -220.5q0 -175 -48.5 -341t-133.5 -296.5t-209.5 -218
t-267.5 -107.5l268 -204zM266 551q0 -226 84.5 -332t255.5 -106q113 0 209.5 52.5t161.5 136t111 189t67 210t21 200.5q0 225 -85 330.5t-257 105.5q-112 0 -208.5 -52.5t-161 -136t-110.5 -188.5t-67 -209.5t-21 -199.5z" />
    <glyph glyph-name="R" unicode="R" horiz-adv-x="1214" 
d="M819 0l-196 655h-301l-127 -655h-189l281 1458h446q214 0 324 -86.5t110 -255.5q0 -186 -106 -301t-260 -135l231 -680h-213zM350 807h277q182 0 267 80.5t85 204.5q0 108 -65 161.5t-173 53.5h-295z" />
    <glyph glyph-name="S" unicode="S" 
d="M-29 285l181 59q5 -42 20.5 -78.5t45.5 -70.5t84 -54t126 -20q139 0 237.5 85.5t98.5 201.5q0 82 -47 132t-164 111l-184 97q-96 50 -148.5 130.5t-52.5 182.5q0 202 138 315t380 113q158 0 266.5 -70.5t132.5 -197.5l-182 -56q-5 72 -64 122t-177 50q-78 0 -138 -23.5
t-93 -62t-49.5 -81.5t-16.5 -87q0 -74 43.5 -126t132.5 -95l155 -76q69 -34 112.5 -63.5t81 -72.5t54.5 -100.5t17 -135.5q0 -125 -69.5 -227t-193 -160t-274.5 -58q-76 0 -140.5 13.5t-109 35.5t-80.5 52t-57 58.5t-36 60.5t-21 54t-9 42z" />
    <glyph glyph-name="T" unicode="T" horiz-adv-x="1062" 
d="M78 1298l31 160h1032l-31 -160h-422l-250 -1298h-188l250 1298h-422z" />
    <glyph glyph-name="U" unicode="U" horiz-adv-x="1366" 
d="M477 1458l-172 -897q-22 -108 -22 -178q0 -122 80.5 -192t211.5 -70q332 0 412 416l178 921h189l-185 -954q-29 -147 -87 -252.5t-141.5 -166t-182.5 -88.5t-221 -28q-202 0 -322.5 115.5t-120.5 290.5q0 71 31 229l164 854h188z" />
    <glyph glyph-name="V" unicode="V" horiz-adv-x="1251" 
d="M334 0l-199 1458h197l137 -1120q11 -88 14 -162h11q20 58 81 172l584 1110h205l-784 -1458h-246z" />
    <glyph glyph-name="W" unicode="W" horiz-adv-x="1820" 
d="M1038 0l-45 1032q-1 59 -1 80.5t2 81t3 80.5h-14q-8 -22 -23 -69.5t-28 -84t-27 -67.5l-454 -1053h-240l-76 1458h189l43 -1065q1 -18 -5 -217h13q26 96 51 158l29 72l450 1052h248l45 -1061q2 -71 -2 -221h12q20 114 78 248l453 1034h188l-647 -1458h-242z" />
    <glyph glyph-name="X" unicode="X" horiz-adv-x="1290" 
d="M895 0l-219 512q-22 51 -43 123h-8q-28 -51 -93 -131l-407 -504h-229l634 758l-309 700h213l178 -436q41 -102 54 -152h10q37 65 108 154l349 434h225l-592 -704l342 -754h-213z" />
    <glyph glyph-name="Y" unicode="Y" horiz-adv-x="1251" 
d="M414 0l114 596l-346 862h213l193 -518q34 -89 59 -186h10q56 100 117 178l402 526h229l-688 -862l-115 -596h-188z" />
    <glyph glyph-name="Z" unicode="Z" horiz-adv-x="1062" 
d="M-98 0l32 172l951 1135h-703l29 151h932l-35 -178l-958 -1128h753l-31 -152h-970z" />
    <glyph glyph-name="bracketleft" unicode="[" horiz-adv-x="569" 
d="M-66 -266l347 1818h348l-23 -110h-188l-301 -1598h188l-22 -110h-349z" />
    <glyph glyph-name="backslash" unicode="\" horiz-adv-x="757" 
d="M485 -55l-348 1538l129 30l348 -1538z" />
    <glyph glyph-name="bracketright" unicode="]" horiz-adv-x="569" 
d="M-86 -266l23 110h188l301 1598h-188l22 110h348l-346 -1818h-348z" />
    <glyph glyph-name="asciicircum" unicode="^" horiz-adv-x="1228" 
d="M1004 530l-390 760l-389 -760h-135l465 928h119l465 -928h-135z" />
    <glyph glyph-name="underscore" unicode="_" horiz-adv-x="1024" 
d="M0 -256v102h1024v-102h-1024z" />
    <glyph glyph-name="grave" unicode="`" horiz-adv-x="493" 
d="M164 1645h213l182 -291h-143z" />
    <glyph glyph-name="a" unicode="a" horiz-adv-x="1099" 
d="M662 0l34 186h-6q-27 -29 -59 -57t-87.5 -67t-126.5 -63t-143 -24q-130 0 -206 85.5t-76 207.5q0 90 31 169.5t92 143t161 102.5t228 44l295 12q22 108 22 179q0 182 -200 182q-56 0 -103 -16t-76.5 -37t-57 -55.5t-39.5 -57t-28 -55.5l-153 53q22 44 43.5 78.5t62.5 79
t88 74t119.5 50.5t157.5 21q73 0 137.5 -19t116.5 -56.5t82 -100t30 -141.5q0 -74 -22 -187l-113 -592q-21 -103 -24 -139h-180zM725 330l53 274l-160 -6q-75 -3 -135.5 -12t-119 -30t-97 -54t-62.5 -86t-24 -123q0 -166 172 -166q35 0 70 7.5t70.5 26t61 32.5t63 44.5
t53.5 44.5t55 48z" />
    <glyph glyph-name="b" unicode="b" horiz-adv-x="1175" 
d="M16 0l306 1591h180l-103 -532h4q63 77 158 126.5t189 49.5q152 0 248 -110.5t96 -317.5q0 -116 -22 -232t-68.5 -224.5t-111.5 -192t-158 -133.5t-202 -50t-173 44t-132 145l-30 -164h-181zM369 901l-115 -598q26 -43 44 -67t48.5 -53t70 -42.5t89.5 -13.5q83 0 152 46.5
t113.5 119.5t75.5 164t44.5 177t13.5 163q0 129 -51 207.5t-164 78.5q-176 0 -321 -182z" />
    <glyph glyph-name="c" unicode="c" horiz-adv-x="1062" 
d="M1010 918l-164 -48q-4 41 -15.5 76.5t-34 70.5t-62.5 55t-93 20q-100 0 -183 -63.5t-133 -162.5t-77 -211t-27 -219q0 -317 234 -317q186 0 293 221l155 -53q-149 -310 -448 -312q-198 0 -310 127t-112 330q0 111 24.5 222.5t76 216.5t123 185.5t174.5 129.5t222 49
q299 0 357 -317z" />
    <glyph glyph-name="d" unicode="d" horiz-adv-x="1175" 
d="M707 0l30 160h-4q-66 -78 -157 -131.5t-199 -53.5q-162 0 -252 115.5t-92 315.5q-1 159 37 308.5t107 265t173 185.5t225 70q111 0 188.5 -47t143.5 -137l105 540h180l-305 -1591h-180zM766 313l115 596q-32 53 -64.5 88t-86.5 60.5t-122 25.5q-74 0 -137.5 -40
t-108.5 -107t-77.5 -153.5t-48 -179.5t-15.5 -185q0 -291 215 -291q56 0 106.5 16.5t93.5 49t69 57t61 63.5z" />
    <glyph glyph-name="e" unicode="e" 
d="M788 330l144 -56q-13 -28 -33 -60t-61.5 -76.5t-92 -79t-127.5 -59t-163 -24.5q-198 0 -310 127t-112 330q0 111 24 222.5t75.5 216.5t123 185.5t174.5 129.5t223 49q202 0 301 -116.5t99 -317.5q0 -106 -37 -242h-787q-16 -57 -16 -158q0 -146 66 -218t186 -72
q109 0 192.5 60.5t130.5 158.5zM250 694h608q14 96 14 123q0 137 -65 210t-174 73q-65 0 -121.5 -25t-96 -64t-73 -94.5t-54.5 -108.5t-38 -114z" />
    <glyph glyph-name="f" unicode="f" horiz-adv-x="645" 
d="M74 0l186 971h-182l31 143h178l30 135q15 65 32.5 114.5t47.5 99t69 81.5t98.5 52t133.5 20q80 0 164 -25l-31 -145q-4 1 -22 7t-26 8t-24 5.5t-31.5 5t-33.5 1.5q-89 0 -133 -57.5t-67 -168.5l-27 -133h242l-31 -143h-238l-186 -971h-180z" />
    <glyph glyph-name="g" unicode="g" horiz-adv-x="1099" 
d="M1182 1210l-31 -127h-119q-70 0 -123 17l-4 -8q25 -23 40.5 -43t31.5 -63t16 -95q0 -84 -35 -161t-97.5 -136.5t-157.5 -95t-207 -35.5q-79 0 -125 16q-74 -55 -74 -98q0 -36 36 -58.5t109 -43.5l179 -50q150 -42 210 -96.5t60 -167.5q0 -160 -151 -269.5t-425 -109.5
q-100 0 -180 18.5t-129 47t-82 66.5t-46 74.5t-13 72.5q0 170 239 299l76 41q-63 41 -63 110q0 33 12.5 62t39 54t46.5 39.5t55 37.5q-170 103 -170 291q0 76 33 152.5t92.5 140t153.5 103.5t205 40q70 0 121 -14q53 -11 88 -11h389zM268 813q0 -100 61 -157.5t171 -57.5
q136 0 230.5 81t94.5 210q0 99 -61 155t-184 56q-137 0 -224.5 -80.5t-87.5 -206.5zM287 160l-107 -58q-68 -39 -101.5 -88t-33.5 -116q0 -89 80 -133t211 -44q184 0 285.5 69t101.5 153q0 60 -41 90.5t-143 58.5z" />
    <glyph glyph-name="h" unicode="h" horiz-adv-x="1175" 
d="M713 0l149 776q23 121 23 168q0 62 -43 96.5t-109 34.5q-25 0 -50 -4.5t-51.5 -15.5t-48 -20.5t-49 -28t-43.5 -29.5t-43.5 -33.5t-37.5 -31t-35.5 -31t-28.5 -25.5l-164 -856h-180l305 1591h180l-108 -569l8 -4q85 87 198.5 152t225.5 65q50 0 94.5 -13t83 -40t61.5 -75
t23 -112q0 -66 -20 -164l-160 -831h-180z" />
    <glyph glyph-name="i" unicode="i" horiz-adv-x="493" 
d="M16 0l234 1210h180l-233 -1210h-181zM274 1415l35 176h205l-35 -176h-205z" />
    <glyph glyph-name="j" unicode="j" horiz-adv-x="493" 
d="M250 1210h180l-233 -1210q-31 -162 -75 -252t-107.5 -126t-164.5 -36q-73 0 -126 17l36 155q41 -12 88 -12q71 0 105.5 53t62.5 201zM274 1415l35 176h205l-35 -176h-205z" />
    <glyph glyph-name="k" unicode="k" horiz-adv-x="1062" 
d="M707 0l-390 629l-120 -629h-181l306 1591h180l-176 -909l4 -4l559 532h246l-623 -565l416 -645h-221z" />
    <glyph glyph-name="l" unicode="l" horiz-adv-x="493" 
d="M16 0l306 1591h180l-305 -1591h-181z" />
    <glyph glyph-name="m" unicode="m" horiz-adv-x="1820" 
d="M2 0l234 1210h180l-37 -186l4 -4q7 6 42.5 37t50.5 43t49.5 38.5t58.5 39t57.5 28.5t67 22.5t67.5 6.5q105 0 180.5 -56t79.5 -155q48 41 83 68.5t92.5 65t117.5 57.5t119 20q50 0 95.5 -14.5t83.5 -43.5t60.5 -79t22.5 -115q0 -49 -18 -152l-162 -831h-180l149 776
q23 121 23 168q0 60 -39 95.5t-111 35.5q-25 0 -51 -5.5t-46.5 -11.5t-48.5 -21.5t-42.5 -23.5t-44.5 -29.5t-38.5 -28t-39 -31.5t-33.5 -27l-172 -897h-180l149 776q23 121 23 168q0 60 -37 95.5t-109 35.5q-22 0 -47.5 -7.5t-46.5 -16t-51 -28t-47 -31t-48.5 -37.5
t-42 -34.5t-41 -35.5t-32.5 -29l-164 -856h-180z" />
    <glyph glyph-name="n" unicode="n" horiz-adv-x="1175" 
d="M713 0l149 776q23 121 23 168q0 62 -43 96.5t-109 34.5q-25 0 -50 -4.5t-51.5 -15.5t-48 -20.5t-49 -28t-43.5 -29.5t-43.5 -33.5t-37.5 -31t-35.5 -31t-28.5 -25.5l-164 -856h-180l234 1210h180l-37 -188l4 -4q90 88 203.5 152.5t224.5 64.5q50 0 94.5 -13t83 -40
t61.5 -75t23 -112q0 -66 -20 -164l-160 -831h-180z" />
    <glyph glyph-name="o" unicode="o" horiz-adv-x="1175" 
d="M33 432q0 111 24.5 222.5t76 216.5t123 185.5t174.5 129.5t222 49q213 0 327 -124.5t114 -338.5q0 -112 -26.5 -224.5t-80.5 -215.5t-128.5 -182.5t-179.5 -127t-224 -47.5q-198 0 -310 127t-112 330zM221 436q0 -143 61.5 -230t180.5 -87q87 0 161.5 43.5t125 114
t86.5 160.5t52.5 182t16.5 180q0 138 -64 215.5t-200 77.5q-100 0 -183 -63.5t-133 -162.5t-77 -211t-27 -219z" />
    <glyph glyph-name="p" unicode="p" horiz-adv-x="1175" 
d="M-57 -385l305 1595h180l-29 -151h4q63 77 158 126.5t189 49.5q152 0 248 -110.5t96 -317.5q0 -116 -22 -232t-68.5 -224.5t-111.5 -192t-158 -133.5t-202 -50t-173 44t-132 145l-104 -549h-180zM369 901l-115 -598q26 -43 44 -67t48.5 -53t70 -42.5t89.5 -13.5
q83 0 152 46.5t113.5 119.5t75.5 164t44.5 177t13.5 163q0 129 -51 207.5t-164 78.5q-176 0 -321 -182z" />
    <glyph glyph-name="q" unicode="q" horiz-adv-x="1175" 
d="M633 -385l104 545h-4q-66 -78 -157 -131.5t-199 -53.5q-162 0 -252 115.5t-92 315.5q-1 159 37 308.5t107 265t173 185.5t225 70q111 0 188.5 -47t143.5 -137l31 159h180l-305 -1595h-180zM766 313l115 596q-32 53 -64.5 88t-86.5 60.5t-122 25.5q-74 0 -137.5 -40
t-108.5 -107t-77.5 -153.5t-48 -179.5t-15.5 -185q0 -291 215 -291q56 0 106.5 16.5t93.5 49t69 57t61 63.5z" />
    <glyph glyph-name="r" unicode="r" horiz-adv-x="757" 
d="M16 0l234 1210h180l-39 -202l4 -4q227 223 445 223l-39 -191q-21 6 -70 6q-55 0 -107.5 -16.5t-100 -49t-85 -65.5t-82.5 -80l-159 -831h-181z" />
    <glyph glyph-name="s" unicode="s" horiz-adv-x="985" 
d="M-37 279l166 55q0 -25 8 -54t27.5 -59t47 -54.5t70 -40t93.5 -15.5q135 0 211 62t76 167q0 31 -9 55.5t-21 40.5t-39.5 32.5t-48 26t-63.5 27.5l-178 76q-106 42 -146 110t-40 158q0 71 29.5 136.5t83 117.5t139 83.5t188.5 31.5q79 0 143.5 -20.5t103 -50t67 -68.5
t40 -70t17.5 -61l-164 -50q0 26 -11.5 55.5t-36 60t-70.5 50t-107 19.5q-107 0 -174.5 -56.5t-67.5 -150.5q0 -59 34.5 -101t119.5 -73l163 -64q116 -44 172 -108.5t56 -165.5q0 -79 -28.5 -150t-84.5 -129.5t-149.5 -92.5t-212.5 -34q-67 0 -123.5 12t-95 29.5t-69.5 46.5
t-49 53t-33 59t-21 54.5t-13 49.5z" />
    <glyph glyph-name="t" unicode="t" horiz-adv-x="720" 
d="M100 1114h183l57 297l195 78l-72 -375h287l-31 -143h-285l-100 -537q-4 -26 -14.5 -74.5t-17.5 -84.5t-7 -52q0 -39 32 -65.5t91 -26.5q14 0 29 2t25.5 4t27.5 7t23.5 7.5t25.5 9.5t24 9l-30 -152q-36 -13 -96.5 -21.5t-98.5 -8.5q-119 0 -176 57t-57 156q0 36 28 188
l111 582h-184z" />
    <glyph glyph-name="u" unicode="u" horiz-adv-x="1175" 
d="M1126 1210l-233 -1210h-180l37 188l-5 5q-90 -88 -203.5 -153t-224.5 -65q-50 0 -94.5 13t-83 40t-61.5 75t-23 112q0 61 21 164l160 831h180l-150 -776q-22 -116 -22 -168q0 -62 42.5 -96.5t108.5 -34.5q25 0 50 4.5t51.5 15.5t48 20.5t49 28t43.5 29.5t43.5 33.5
t37.5 31t35.5 31t28.5 25.5l164 856h180z" />
    <glyph glyph-name="v" unicode="v" horiz-adv-x="1024" 
d="M262 0l-168 1210h189l98 -856q17 -149 18 -178h15q21 48 82 174l422 860h196l-629 -1210h-223z" />
    <glyph glyph-name="w" unicode="w" horiz-adv-x="1669" 
d="M938 0l-45 797q-4 72 -4 213h-17q-23 -71 -63 -162l-375 -848h-229l-111 1210h189l61 -845q2 -33 2 -189h12q26 83 72 184l383 850h221l45 -854q2 -34 2.5 -97t1.5 -83h13q25 78 69 176l381 858h189l-555 -1210h-242z" />
    <glyph glyph-name="x" unicode="x" horiz-adv-x="1062" 
d="M696 0l-170 436q-19 50 -28 82h-4q-19 -31 -64 -88l-340 -430h-221l541 649l-244 561h196l152 -374q23 -67 27 -82h4q10 17 57 80l301 376h213l-483 -577l268 -633h-205z" />
    <glyph glyph-name="y" unicode="y" horiz-adv-x="1024" 
d="M291 18l-205 1192h188l123 -854q11 -84 11 -155h12q23 79 76 180l430 829h200l-700 -1286l-59 -108q-131 -230 -320 -230q-76 0 -137 21l35 151q6 -2 22 -7.5t30.5 -9t31.5 -3.5q57 0 100.5 33t93.5 123z" />
    <glyph glyph-name="z" unicode="z" horiz-adv-x="985" 
d="M154 135h671l-28 -135h-895l28 139l840 936h-637l25 135h856l-29 -147z" />
    <glyph glyph-name="braceleft" unicode="{" horiz-adv-x="569" 
d="M18 588l23 110q75 0 125 62t70 162l73 397q43 233 246 233h143l-20 -110h-86q-99 0 -121 -123l-80 -416q-12 -62 -39.5 -112.5t-60.5 -79.5t-60 -45t-49 -21v-4q34 -12 71.5 -57.5t37.5 -118.5q0 -85 -15 -158l-55 -282q-10 -62 -10 -115q0 -31 20 -48.5t56 -17.5h86
l-21 -110h-121q-180 0 -180 172q0 35 15 127l55 301q10 62 10 133q0 46 -31 83.5t-82 37.5z" />
    <glyph glyph-name="bar" unicode="|" horiz-adv-x="454" 
d="M160 -512v2048h135v-2048h-135z" />
    <glyph glyph-name="braceright" unicode="}" horiz-adv-x="569" 
d="M518 698l-22 -110q-75 0 -125 -62t-70 -161l-74 -398q-43 -233 -245 -233h-144l21 110h86q99 0 121 123l79 416q12 62 39.5 112.5t60.5 79.5t60 45t49 21v4q-34 12 -71 57.5t-37 118.5q0 90 14 158l55 283q11 68 11 114q0 31 -20 48.5t-56 17.5h-86l20 110h121
q180 0 180 -172q0 -41 -14 -127l-55 -301q-10 -62 -10 -133q0 -47 30.5 -84t81.5 -37z" />
    <glyph glyph-name="asciitilde" unicode="~" horiz-adv-x="1228" 
d="M1014 657l73 -94q-4 -6 -12 -17q-23 -32 -35.5 -49t-37.5 -43t-47 -39t-54.5 -23.5t-69.5 -10.5q-71 0 -231 70q-154 69 -197 69q-57 0 -105 -40t-83 -101l-74 94q95 182 256 182q74 0 236 -69q143 -61 182 -68q11 -2 19 -2q55 0 95.5 36.5t84.5 104.5z" />
    <glyph glyph-name="uni00A0" unicode="&#xa0;" horiz-adv-x="569" 
 />
    <glyph glyph-name="exclamdown" unicode="&#xa1;" horiz-adv-x="645" 
d="M412 805l-174 -1053h-205l235 1053h144zM518 1210l-41 -213h-201l43 213h199z" />
    <glyph glyph-name="cent" unicode="&#xa2;" 
d="M319 223l445 858q-37 11 -68 11q-100 0 -183 -64.5t-133 -165t-77 -213t-27 -217.5q0 -135 43 -209zM150 -106l90 174q-73 58 -112.5 152.5t-39.5 211.5q0 111 24.5 222.5t76 216.5t123.5 186t175 129.5t222 48.5q72 0 125 -18l71 139l78 -25l-76 -147q131 -79 162 -266
l-168 -48q-12 112 -70 168l-454 -880q51 -39 133 -39q186 0 293 221l155 -53q-149 -310 -448 -312q-115 0 -203 48l-80 -154z" />
    <glyph glyph-name="sterling" unicode="&#xa3;" 
d="M-25 0l27 143h164l102 539h-153l26 135h152l55 270q38 193 156 297.5t321 104.5q279 0 338 -244l-176 -49q-6 25 -10.5 40t-18 38.5t-31.5 37t-50.5 24t-75.5 10.5q-55 0 -100 -19t-71.5 -45.5t-47 -61.5t-28.5 -59t-13 -47l-68 -297h336l-27 -135h-333l-103 -539h561
l-26 -143h-906z" />
    <glyph glyph-name="currency" unicode="&#xa4;" 
d="M55 307l113 117q-107 128 -107 307q0 199 111 307l-117 117l90 90l115 -115q127 109 309 109q190 0 308 -106l114 114l92 -92l-110 -113q104 -118 104 -311q0 -182 -104 -309l110 -115l-88 -88l-110 119q-127 -115 -316 -115q-185 0 -315 113l-111 -117zM197 731
q0 -159 109 -270t263 -111q158 0 265.5 110.5t107.5 270.5q0 159 -108 270t-265 111q-154 0 -263 -111.5t-109 -269.5z" />
    <glyph glyph-name="yen" unicode="&#xa5;" 
d="M330 0l61 311h-313l20 105h314l34 180h-311l21 104h254l-267 758h189l172 -518q28 -85 51 -186h10q57 108 109 178l375 526h204l-563 -758h271l-21 -104h-326l-34 -180h323l-20 -105h-324l-61 -311h-168z" />
    <glyph glyph-name="brokenbar" unicode="&#xa6;" horiz-adv-x="454" 
d="M160 -358v716h135v-716h-135zM160 666v716h135v-716h-135z" />
    <glyph glyph-name="section" unicode="&#xa7;" 
d="M-16 20l149 66q6 -30 13 -52t25 -55.5t42.5 -55t67 -38t96.5 -16.5q128 0 205 59t77 150q0 26 -4 46t-17 37.5t-23.5 29t-37 27.5t-43 24t-55.5 28l-174 86q-176 87 -176 238q0 64 26 119.5t69 93.5t90.5 63t97.5 37q-75 42 -114.5 96t-39.5 146q0 140 119.5 240
t300.5 100q73 0 133.5 -17.5t99.5 -43.5t67.5 -60t42.5 -63.5t19 -57.5l-147 -67q-11 34 -25.5 60t-40.5 54.5t-69 44t-99 15.5q-103 0 -168 -53t-65 -136q0 -58 32.5 -98t100.5 -76l189 -100q107 -57 151.5 -121.5t44.5 -144.5q0 -57 -23 -108t-62 -87t-83 -60.5t-92 -37.5
v-4q66 -37 104.5 -87.5t38.5 -140.5q0 -159 -127 -262.5t-323 -103.5q-93 0 -165.5 24t-117.5 66.5t-71 90.5t-39 105zM424 471l172 -86q87 40 137.5 89t50.5 116q0 100 -114 162l-164 88l-68 -25q-70 -26 -109.5 -75.5t-39.5 -106.5t35 -93.5t100 -68.5z" />
    <glyph glyph-name="dieresis" unicode="&#xa8;" horiz-adv-x="493" 
d="M113 1415l37 184h196l-37 -184h-196zM481 1415l37 184h197l-37 -184h-197z" />
    <glyph glyph-name="copyright" unicode="&#xa9;" horiz-adv-x="1638" 
d="M1087 575h127q-31 -145 -131 -231t-237 -86q-198 0 -320.5 131.5t-122.5 329.5q0 202 118.5 330.5t318.5 128.5q145 0 248 -81.5t124 -226.5h-125q-18 83 -83 134t-162 51q-143 0 -223 -93t-80 -239q0 -143 84.5 -242.5t222.5 -99.5q97 0 162 53.5t79 140.5zM59 729
q0 155 60 295.5t162 242.5t242.5 162t295.5 60t295.5 -60t242.5 -162t162 -242.5t60 -295.5t-60 -295.5t-162 -242.5t-242.5 -162t-295.5 -60t-295.5 60t-242.5 162t-162 242.5t-60 295.5zM195 729q0 -176 81 -322t224.5 -230.5t318.5 -84.5t318.5 84.5t225 230.5t81.5 322
t-81.5 322t-225 230.5t-318.5 84.5t-318.5 -84.5t-224.5 -230.5t-81 -322z" />
    <glyph glyph-name="ordfeminine" unicode="&#xaa;" horiz-adv-x="714" 
d="M508 748l22 112h-4q-127 -127 -270 -127q-88 0 -136 54.5t-48 142.5q0 100 83.5 173.5t250.5 80.5l192 8q14 82 14 106q0 105 -131 105q-45 0 -79.5 -12t-57.5 -35t-34.5 -40t-24.5 -42l-101 33q14 27 28 47.5t41 47.5t58 44.5t79 30t104 12.5q103 0 172 -49t69 -142
q0 -37 -14 -112l-68 -324l-6 -31q-16 -62 -16 -83h-123zM549 946l35 158l-117 -4q-83 -3 -139.5 -16.5t-94.5 -49t-38 -92.5q0 -115 112 -115q45 0 93 21t75 40.5t74 57.5z" />
    <glyph glyph-name="guillemotleft" unicode="&#xab;" horiz-adv-x="985" 
d="M53 631l381 422l103 -86l-306 -361l166 -399l-123 -60zM461 631l381 422l102 -86l-305 -361l166 -399l-123 -60z" />
    <glyph glyph-name="logicalnot" unicode="&#xac;" horiz-adv-x="1228" 
d="M997 221v428h-901v135h1037v-563h-136z" />
    <glyph glyph-name="uni00AD" unicode="&#xad;" horiz-adv-x="684" 
d="M53 530l31 152h498l-31 -152h-498z" />
    <glyph glyph-name="registered" unicode="&#xae;" horiz-adv-x="1638" 
d="M659 666v-381h-122v864h329q299 0 299 -244q0 -110 -61 -167t-162 -68l246 -385h-139l-234 381h-156zM659 766h154q43 0 70.5 2t60.5 10t52.5 23t32.5 42.5t13 67.5q0 138 -196 138h-187v-283zM59 729q0 155 60 295.5t162 242.5t242.5 162t295.5 60t295.5 -60t242.5 -162
t162 -242.5t60 -295.5t-60 -295.5t-162 -242.5t-242.5 -162t-295.5 -60t-295.5 60t-242.5 162t-162 242.5t-60 295.5zM195 729q0 -176 81 -322t224.5 -230.5t318.5 -84.5t318.5 84.5t225 230.5t81.5 322t-81.5 322t-225 230.5t-318.5 84.5t-318.5 -84.5t-224.5 -230.5
t-81 -322z" />
    <glyph glyph-name="macron" unicode="&#xaf;" horiz-adv-x="493" 
d="M94 1444l27 110h569l-26 -110h-570z" />
    <glyph glyph-name="degree" unicode="&#xb0;" horiz-adv-x="819" 
d="M176 1176q0 129 92 221t221 92t221.5 -92t92.5 -221t-92.5 -221.5t-221.5 -92.5t-221 92.5t-92 221.5zM287 1176q0 -85 58.5 -144t143.5 -59t144 59t59 144t-59 143.5t-144 58.5t-143.5 -58.5t-58.5 -143.5z" />
    <glyph glyph-name="plusminus" unicode="&#xb1;" horiz-adv-x="1228" 
d="M547 209v346h-451v135h451v346h135v-346h451v-135h-451v-346h-135zM96 0v135h1037v-135h-1037z" />
    <glyph glyph-name="twosuperior" unicode="&#xb2;" horiz-adv-x="739" 
d="M29 596l20 98l436 355q78 64 117 113.5t39 105.5q0 58 -40.5 88t-111.5 30q-35 0 -63.5 -7t-48 -21.5t-32 -27t-22.5 -33.5t-13 -30t-9 -28l-125 16q30 113 107.5 173.5t222.5 60.5q128 0 199 -54.5t71 -146.5q0 -84 -43 -153.5t-141 -145.5l-375 -287v-4h442l-20 -102
h-610z" />
    <glyph glyph-name="threesuperior" unicode="&#xb3;" horiz-adv-x="739" 
d="M291 1274l-117 33q9 20 19 37t37 46t60.5 48.5t91 35t126.5 15.5q117 0 189.5 -50.5t72.5 -140.5q0 -96 -62 -157t-173 -82v-4q78 -18 120.5 -64.5t42.5 -120.5q0 -116 -95.5 -202t-256.5 -86q-65 0 -116 15.5t-80.5 38.5t-49.5 54.5t-28 58t-11 54.5l119 24
q3 -64 42.5 -103.5t123.5 -39.5q93 0 151 58.5t58 134.5q0 47 -25 77.5t-55.5 40t-64.5 9.5q-35 0 -80 -9l18 109q55 0 101.5 8t88 26t65.5 53t24 83q0 55 -38.5 83.5t-109.5 28.5q-139 0 -188 -112z" />
    <glyph glyph-name="acute" unicode="&#xb4;" horiz-adv-x="493" 
d="M221 1354l236 291h229l-321 -291h-144z" />
    <glyph glyph-name="mu" unicode="&#xb5;" horiz-adv-x="1175" 
d="M1126 1210l-233 -1210h-180l37 188l-5 5q-89 -87 -199.5 -152.5t-209.5 -65.5q-42 0 -81.5 21.5t-61.5 54.5l-84 -436h-181l308 1595h180l-150 -776q-22 -116 -22 -168q0 -62 42.5 -96.5t108.5 -34.5q25 0 50 4.5t51.5 15.5t48 20.5t49 28t43.5 29.5t43.5 33.5t37.5 31
t35.5 31t28.5 25.5l164 856h180z" />
    <glyph glyph-name="paragraph" unicode="&#xb6;" horiz-adv-x="1228" 
d="M334 -254l192 938q-162 0 -260 85t-98 218q0 114 46.5 205.5t125 148.5t177 87t208.5 30h487l-354 -1712h-135l330 1589h-254l-330 -1589h-135z" />
    <glyph glyph-name="periodcentered" unicode="&#xb7;" horiz-adv-x="569" 
d="M160 651q0 53 36 89t89 36t89 -36t36 -89t-36 -89t-89 -36t-89 36t-36 89z" />
    <glyph glyph-name="cedilla" unicode="&#xb8;" horiz-adv-x="493" 
d="M102 0h86l-112 -119l4 -4q24 6 70 6q55 0 96 -30t41 -97q0 -81 -70 -136.5t-192 -55.5t-199 47l43 72q64 -31 164 -31q58 0 88.5 26t30.5 64q0 33 -22.5 52.5t-63.5 19.5q-50 0 -86 -23l-35 41z" />
    <glyph glyph-name="onesuperior" unicode="&#xb9;" horiz-adv-x="739" 
d="M291 596l153 737l-243 -157l-54 90l330 209h131l-182 -879h-135z" />
    <glyph glyph-name="ordmasculine" unicode="&#xba;" horiz-adv-x="739" 
d="M362 733q-134 0 -207 75.5t-73 199.5q0 66 16 133t50.5 130t82.5 111.5t118 77.5t151 29q140 0 212 -73t72 -202q0 -68 -17 -136t-53 -130.5t-85 -110t-118.5 -76t-148.5 -28.5zM362 827q72 0 129.5 38.5t90.5 100t50 128.5t17 133q0 168 -166 168q-63 0 -115.5 -37.5
t-84 -95.5t-49 -124t-17.5 -128q0 -183 145 -183z" />
    <glyph glyph-name="guillemotright" unicode="&#xbb;" horiz-adv-x="985" 
d="M858 569l-381 -422l-102 86l305 361l-166 399l123 60zM451 569l-381 -422l-103 86l305 361l-166 399l123 60z" />
    <glyph glyph-name="onequarter" unicode="&#xbc;" horiz-adv-x="1708" 
d="M1284 0l35 162h-410l25 119l489 598h179l-132 -615h123l-18 -102h-121l-35 -162h-135zM1335 264l95 400q10 37 30 96h-4l-407 -496h286zM283 -49l886 1562h136l-887 -1562h-135zM229 596l154 737l-244 -157l-53 90l330 209h131l-182 -879h-136z" />
    <glyph glyph-name="onehalf" unicode="&#xbd;" horiz-adv-x="1708" 
d="M221 -49l887 1562h135l-887 -1562h-135zM229 596l154 737l-244 -157l-53 90l330 209h131l-182 -879h-136zM895 0l20 98l437 355q77 63 116 113t39 106q0 59 -40 89t-111 30q-52 0 -88.5 -15t-57 -43.5t-28 -45t-15.5 -44.5l-125 16q30 113 107.5 173.5t222.5 60.5
q128 0 199 -54.5t71 -146.5q0 -84 -43 -153.5t-141 -145.5l-375 -287v-4h443l-21 -102h-610z" />
    <glyph glyph-name="threequarters" unicode="&#xbe;" horiz-adv-x="1708" 
d="M1337 0l35 162h-409l24 119l490 598h178l-131 -615h123l-19 -102h-121l-34 -162h-136zM1389 264l94 400q10 37 30 96h-4l-407 -496h287zM401 -49l887 1562h135l-886 -1562h-136zM291 1274l-117 33q9 20 19 37t37 46t60.5 48.5t91 35t126.5 15.5q117 0 189.5 -50.5
t72.5 -140.5q0 -96 -62 -157t-173 -82v-4q78 -18 120.5 -64.5t42.5 -120.5q0 -116 -95.5 -202t-256.5 -86q-65 0 -116 15.5t-80.5 38.5t-49.5 54.5t-28 58t-11 54.5l119 24q3 -64 42.5 -103.5t123.5 -39.5q93 0 151 58.5t58 134.5q0 47 -25 77.5t-55.5 40t-64.5 9.5
q-35 0 -80 -9l18 109q55 0 101.5 8t88 26t65.5 53t24 83q0 55 -38.5 83.5t-109.5 28.5q-139 0 -188 -112z" />
    <glyph glyph-name="questiondown" unicode="&#xbf;" horiz-adv-x="1062" 
d="M627 801l-11 -64q-8 -51 -14.5 -81.5t-21.5 -74t-42 -80t-67 -69.5l-168 -139q-133 -109 -133 -240q0 -97 58 -142.5t153 -45.5q57 0 105 21.5t76.5 53t45 63t19.5 56.5l172 -59q-1 -1 -11 -21.5t-19.5 -37.5t-30 -44.5t-43 -49.5t-57.5 -46.5t-74.5 -41t-94 -27.5
t-115.5 -11q-168 0 -266 80.5t-98 243.5q0 186 168 322l184 149q54 44 76.5 91.5t38.5 140.5l10 53h160zM707 1210l-41 -213h-201l41 213h201z" />
    <glyph glyph-name="Agrave" unicode="&#xc0;" horiz-adv-x="1366" 
d="M-106 0l843 1458h240l270 -1458h-188l-70 387h-674l-221 -387h-200zM961 539l-107 589q-23 136 -25 162h-10q-33 -77 -112 -217l-306 -534h560zM600 1841h213l182 -291h-143z" />
    <glyph glyph-name="Aacute" unicode="&#xc1;" horiz-adv-x="1366" 
d="M-106 0l843 1458h240l270 -1458h-188l-70 387h-674l-221 -387h-200zM961 539l-107 589q-23 136 -25 162h-10q-33 -77 -112 -217l-306 -534h560zM719 1550l235 291h230l-322 -291h-143z" />
    <glyph glyph-name="Acircumflex" unicode="&#xc2;" horiz-adv-x="1366" 
d="M-106 0l843 1458h240l270 -1458h-188l-70 387h-674l-221 -387h-200zM961 539l-107 589q-23 136 -25 162h-10q-33 -77 -112 -217l-306 -534h560zM516 1550l279 291h180l172 -291h-152l-121 197l-198 -197h-160z" />
    <glyph glyph-name="Atilde" unicode="&#xc3;" horiz-adv-x="1366" 
d="M-106 0l843 1458h240l270 -1458h-188l-70 387h-674l-221 -387h-200zM961 539l-107 589q-23 136 -25 162h-10q-33 -77 -112 -217l-306 -534h560zM612 1571h-102q2 20 9.5 46t24.5 58t40 58t60.5 43.5t82.5 17.5q51 0 143 -53q35 -20 49 -27.5t40 -17.5t45 -10
q40 0 62.5 31t29.5 73h102q-4 -32 -17.5 -67.5t-37.5 -72t-65 -60t-91 -23.5q-51 0 -139 53q-81 47 -129 47q-44 0 -73 -27t-34 -69z" />
    <glyph glyph-name="Adieresis" unicode="&#xc4;" horiz-adv-x="1366" 
d="M-106 0l843 1458h240l270 -1458h-188l-70 387h-674l-221 -387h-200zM961 539l-107 589q-23 136 -25 162h-10q-33 -77 -112 -217l-306 -534h560zM565 1612l37 184h197l-37 -184h-197zM934 1612l37 184h196l-37 -184h-196z" />
    <glyph glyph-name="Aring" unicode="&#xc5;" horiz-adv-x="1366" 
d="M-106 0l843 1458h240l270 -1458h-188l-70 387h-674l-221 -387h-200zM961 539l-107 589q-23 136 -25 162h-10q-33 -77 -112 -217l-306 -534h560zM672 1696q0 83 57.5 140.5t140.5 57.5t141 -57.5t58 -140.5t-58 -141t-141 -58t-140.5 58t-57.5 141zM760 1696
q0 -46 32 -78.5t78 -32.5t78.5 32.5t32.5 78.5t-32.5 78t-78.5 32t-78 -32t-32 -78z" />
    <glyph glyph-name="AE" unicode="&#xc6;" horiz-adv-x="1820" 
d="M829 0l78 406h-532l-314 -406h-221l1137 1458h874l-28 -151h-561l-93 -476h529l-29 -151h-528l-103 -528h584l-29 -152h-764zM936 557l145 758h-18q-69 -104 -137 -191l-443 -567h453z" />
    <glyph glyph-name="Ccedilla" unicode="&#xc7;" horiz-adv-x="1327" 
d="M1008 410l180 -48q-17 -52 -43 -100.5t-75.5 -104t-112 -95.5t-158 -66.5t-209.5 -26.5l-86 -88l4 -4q24 6 70 6q55 0 96 -30t41 -97q0 -81 -70 -136.5t-192 -55.5t-199 47l43 72q61 -33 164 -33q58 0 88.5 27t30.5 65q0 33 -22.5 52.5t-63.5 19.5q-50 0 -86 -23l-35 41
l137 145q-214 26 -327 171t-113 370q0 106 20.5 216.5t60.5 220t105 205.5t147 169.5t193 116.5t238 43q108 0 195 -28.5t138 -70t86 -94.5t48 -96t16 -82l-189 -41q0 21 -8.5 51t-30.5 67.5t-54 68.5t-85.5 52t-118.5 21q-112 0 -207.5 -52.5t-160 -136t-110 -188.5
t-66.5 -209.5t-21 -199.5q0 -220 84.5 -325t255.5 -105q82 0 150.5 24.5t116.5 67.5t81 91.5t54 105.5z" />
    <glyph glyph-name="Egrave" unicode="&#xc8;" 
d="M6 0l281 1458h882l-30 -151h-695l-90 -476h658l-33 -151h-653l-101 -528h709l-31 -152h-897zM518 1841h213l182 -291h-143z" />
    <glyph glyph-name="Eacute" unicode="&#xc9;" 
d="M6 0l281 1458h882l-30 -151h-695l-90 -476h658l-33 -151h-653l-101 -528h709l-31 -152h-897zM586 1550l235 291h230l-322 -291h-143z" />
    <glyph glyph-name="Ecircumflex" unicode="&#xca;" 
d="M6 0l281 1458h882l-30 -151h-695l-90 -476h658l-33 -151h-653l-101 -528h709l-31 -152h-897zM410 1550l278 291h180l172 -291h-151l-121 197l-199 -197h-159z" />
    <glyph glyph-name="Edieresis" unicode="&#xcb;" 
d="M6 0l281 1458h882l-30 -151h-695l-90 -476h658l-33 -151h-653l-101 -528h709l-31 -152h-897zM457 1612l37 184h196l-37 -184h-196zM825 1612l37 184h197l-37 -184h-197z" />
    <glyph glyph-name="Igrave" unicode="&#xcc;" horiz-adv-x="493" 
d="M12 0l281 1458h188l-280 -1458h-189zM102 1841h213l183 -291h-144z" />
    <glyph glyph-name="Iacute" unicode="&#xcd;" horiz-adv-x="493" 
d="M12 0l281 1458h188l-280 -1458h-189zM283 1550l235 291h230l-322 -291h-143z" />
    <glyph glyph-name="Icircumflex" unicode="&#xce;" horiz-adv-x="493" 
d="M12 0l281 1458h188l-280 -1458h-189zM80 1550l278 291h181l172 -291h-152l-121 197l-198 -197h-160z" />
    <glyph glyph-name="Idieresis" unicode="&#xcf;" horiz-adv-x="493" 
d="M12 0l281 1458h188l-280 -1458h-189zM125 1612l37 184h196l-36 -184h-197zM494 1612l36 184h197l-37 -184h-196z" />
    <glyph glyph-name="Eth" unicode="&#xd0;" horiz-adv-x="1366" 
d="M6 0l139 723h-145l25 115h143l119 620h407q133 0 237 -32t171.5 -86.5t112 -131t63 -160t18.5 -180.5q0 -84 -16 -170t-49 -171.5t-81 -163t-116 -144t-148.5 -115t-184 -76.5t-218.5 -28h-477zM332 723l-109 -571h230q104 0 193 26t154 70t117.5 104t86 126t55.5 139.5
t31.5 140.5t9.5 131q0 194 -104 306t-316 112h-234l-90 -469h406l-25 -115h-405z" />
    <glyph glyph-name="Ntilde" unicode="&#xd1;" horiz-adv-x="1441" 
d="M18 0l281 1458h242l397 -1065q22 -60 55 -192h11q5 85 28 209l203 1048h188l-280 -1458h-250l-399 1061q-38 102 -56 196h-10q0 -102 -16 -190l-205 -1067h-189zM651 1571h-102q2 20 9.5 46t24.5 58t40 58t60.5 43.5t82.5 17.5q51 0 143 -53q3 -2 14 -8t14.5 -8t13 -7.5
t14 -7.5t13 -6.5t13.5 -6t13 -4.5t13.5 -4t12 -2t12.5 -1q40 0 63 31.5t30 72.5h102q-4 -32 -17.5 -67.5t-37.5 -72t-65 -60t-91 -23.5q-51 0 -139 53q-81 47 -129 47q-44 0 -73 -27t-34 -69z" />
    <glyph glyph-name="Ograve" unicode="&#xd2;" horiz-adv-x="1441" 
d="M70 518q0 106 20.5 216.5t60.5 220t105 205.5t147 169.5t193 116.5t238 43q132 0 235.5 -40.5t169 -114.5t99.5 -173.5t34 -220.5q0 -106 -20.5 -216.5t-60.5 -220t-105 -205.5t-147 -169.5t-194 -116.5t-239 -43q-260 0 -398 150.5t-138 398.5zM266 551
q0 -226 84.5 -332t255.5 -106q113 0 209.5 52.5t161.5 136t111 189t67 210t21 200.5q0 225 -85 330.5t-257 105.5q-112 0 -208.5 -52.5t-161 -136t-110.5 -188.5t-67 -209.5t-21 -199.5zM639 1841h213l182 -291h-143z" />
    <glyph glyph-name="Oacute" unicode="&#xd3;" horiz-adv-x="1441" 
d="M70 518q0 106 20.5 216.5t60.5 220t105 205.5t147 169.5t193 116.5t238 43q132 0 235.5 -40.5t169 -114.5t99.5 -173.5t34 -220.5q0 -106 -20.5 -216.5t-60.5 -220t-105 -205.5t-147 -169.5t-194 -116.5t-239 -43q-260 0 -398 150.5t-138 398.5zM266 551
q0 -226 84.5 -332t255.5 -106q113 0 209.5 52.5t161.5 136t111 189t67 210t21 200.5q0 225 -85 330.5t-257 105.5q-112 0 -208.5 -52.5t-161 -136t-110.5 -188.5t-67 -209.5t-21 -199.5zM737 1550l236 291h229l-321 -291h-144z" />
    <glyph glyph-name="Ocircumflex" unicode="&#xd4;" horiz-adv-x="1441" 
d="M70 518q0 106 20.5 216.5t60.5 220t105 205.5t147 169.5t193 116.5t238 43q132 0 235.5 -40.5t169 -114.5t99.5 -173.5t34 -220.5q0 -106 -20.5 -216.5t-60.5 -220t-105 -205.5t-147 -169.5t-194 -116.5t-239 -43q-260 0 -398 150.5t-138 398.5zM266 551
q0 -226 84.5 -332t255.5 -106q113 0 209.5 52.5t161.5 136t111 189t67 210t21 200.5q0 225 -85 330.5t-257 105.5q-112 0 -208.5 -52.5t-161 -136t-110.5 -188.5t-67 -209.5t-21 -199.5zM541 1550l278 291h180l172 -291h-151l-121 197l-199 -197h-159z" />
    <glyph glyph-name="Otilde" unicode="&#xd5;" horiz-adv-x="1441" 
d="M70 518q0 106 20.5 216.5t60.5 220t105 205.5t147 169.5t193 116.5t238 43q132 0 235.5 -40.5t169 -114.5t99.5 -173.5t34 -220.5q0 -106 -20.5 -216.5t-60.5 -220t-105 -205.5t-147 -169.5t-194 -116.5t-239 -43q-260 0 -398 150.5t-138 398.5zM266 551
q0 -226 84.5 -332t255.5 -106q113 0 209.5 52.5t161.5 136t111 189t67 210t21 200.5q0 225 -85 330.5t-257 105.5q-112 0 -208.5 -52.5t-161 -136t-110.5 -188.5t-67 -209.5t-21 -199.5zM627 1571h-103q2 20 9.5 46t24.5 58t40 58t60.5 43.5t82.5 17.5q52 0 144 -53
q3 -2 14 -8t14.5 -8t13 -7.5t14 -7.5t13 -6.5t13.5 -6t13 -4.5t13.5 -4t12 -2t12.5 -1q40 0 62.5 31t29.5 73h102q-4 -32 -17.5 -67.5t-37.5 -72t-65 -60t-91 -23.5q-51 0 -139 53q-81 47 -129 47q-44 0 -72.5 -27t-33.5 -69z" />
    <glyph glyph-name="Odieresis" unicode="&#xd6;" horiz-adv-x="1441" 
d="M70 518q0 106 20.5 216.5t60.5 220t105 205.5t147 169.5t193 116.5t238 43q132 0 235.5 -40.5t169 -114.5t99.5 -173.5t34 -220.5q0 -106 -20.5 -216.5t-60.5 -220t-105 -205.5t-147 -169.5t-194 -116.5t-239 -43q-260 0 -398 150.5t-138 398.5zM266 551
q0 -226 84.5 -332t255.5 -106q113 0 209.5 52.5t161.5 136t111 189t67 210t21 200.5q0 225 -85 330.5t-257 105.5q-112 0 -208.5 -52.5t-161 -136t-110.5 -188.5t-67 -209.5t-21 -199.5zM588 1612l37 184h196l-37 -184h-196zM956 1612l37 184h197l-37 -184h-197z" />
    <glyph glyph-name="multiply" unicode="&#xd7;" horiz-adv-x="1228" 
d="M614 424l-376 -379l-95 94l377 379l-377 377l95 92l376 -375l379 375l92 -92l-376 -377l376 -379l-90 -94z" />
    <glyph glyph-name="Oslash" unicode="&#xd8;" horiz-adv-x="1441" 
d="M285 375l845 788q-77 174 -296 174q-112 0 -208.5 -52.5t-161 -136t-110.5 -188.5t-67 -209.5t-21 -199.5q0 -98 19 -176zM1159 1069l-844 -786q73 -170 291 -170q113 0 209.5 52.5t161.5 136t111 189t67 210t21 200.5q0 101 -17 168zM-49 63l180 168q-61 122 -61 287
q0 106 20.5 216.5t60.5 220t105 205.5t147 169.5t193 116.5t238 43q298 0 436 -197l164 154l63 -62l-182 -170q57 -114 57 -274q0 -106 -20.5 -216.5t-60.5 -220t-105 -205.5t-147 -169.5t-194 -116.5t-239 -43q-287 0 -428 187l-168 -156z" />
    <glyph glyph-name="Ugrave" unicode="&#xd9;" horiz-adv-x="1366" 
d="M477 1458l-172 -897q-22 -108 -22 -178q0 -122 80.5 -192t211.5 -70q332 0 412 416l178 921h189l-185 -954q-29 -147 -87 -252.5t-141.5 -166t-182.5 -88.5t-221 -28q-202 0 -322.5 115.5t-120.5 290.5q0 71 31 229l164 854h188zM600 1841h213l182 -291h-143z" />
    <glyph glyph-name="Uacute" unicode="&#xda;" horiz-adv-x="1366" 
d="M477 1458l-172 -897q-22 -108 -22 -178q0 -122 80.5 -192t211.5 -70q332 0 412 416l178 921h189l-185 -954q-29 -147 -87 -252.5t-141.5 -166t-182.5 -88.5t-221 -28q-202 0 -322.5 115.5t-120.5 290.5q0 71 31 229l164 854h188zM657 1550l236 291h229l-321 -291h-144z
" />
    <glyph glyph-name="Ucircumflex" unicode="&#xdb;" horiz-adv-x="1366" 
d="M477 1458l-172 -897q-22 -108 -22 -178q0 -122 80.5 -192t211.5 -70q332 0 412 416l178 921h189l-185 -954q-29 -147 -87 -252.5t-141.5 -166t-182.5 -88.5t-221 -28q-202 0 -322.5 115.5t-120.5 290.5q0 71 31 229l164 854h188zM502 1550l278 291h181l172 -291h-152
l-121 197l-198 -197h-160z" />
    <glyph glyph-name="Udieresis" unicode="&#xdc;" horiz-adv-x="1366" 
d="M477 1458l-172 -897q-22 -108 -22 -178q0 -122 80.5 -192t211.5 -70q332 0 412 416l178 921h189l-185 -954q-29 -147 -87 -252.5t-141.5 -166t-182.5 -88.5t-221 -28q-202 0 -322.5 115.5t-120.5 290.5q0 71 31 229l164 854h188zM549 1612l37 184h196l-37 -184h-196z
M918 1612l36 184h197l-37 -184h-196z" />
    <glyph glyph-name="Yacute" unicode="&#xdd;" horiz-adv-x="1251" 
d="M414 0l114 596l-346 862h213l193 -518q34 -89 59 -186h10q56 100 117 178l402 526h229l-688 -862l-115 -596h-188zM641 1550l236 291h229l-322 -291h-143z" />
    <glyph glyph-name="Thorn" unicode="&#xde;" horiz-adv-x="1214" 
d="M12 0l281 1458h188l-45 -229h246q219 0 341 -93t122 -278q0 -101 -33 -188.5t-97 -156.5t-169.5 -108.5t-241.5 -39.5h-334l-69 -365h-189zM301 516h311q168 0 256 91t88 241q0 116 -79.5 172.5t-225.5 56.5h-243z" />
    <glyph glyph-name="germandbls" unicode="&#xdf;" horiz-adv-x="1175" 
d="M16 0l222 1157q15 76 36 137.5t60 123.5t91 104t130.5 68t177.5 26q182 0 279.5 -94.5t97.5 -241.5q0 -167 -97.5 -275.5t-232.5 -130.5v-12q111 -15 187.5 -96.5t76.5 -226.5q0 -100 -36 -198t-99.5 -176.5t-160 -127.5t-207.5 -49q-131 0 -211 41l71 139
q61 -37 140 -37q72 0 134 37t102.5 96.5t63.5 133.5t23 149q0 87 -40 143t-115 78q-54 16 -189 16l31 144q50 0 75 0.5t67 8t69 21.5q168 87 168 312q0 93 -53.5 148t-147.5 55q-128 0 -205 -82t-102 -213l-225 -1178h-181z" />
    <glyph glyph-name="agrave" unicode="&#xe0;" horiz-adv-x="1099" 
d="M662 0l34 186h-6q-27 -29 -59 -57t-87.5 -67t-126.5 -63t-143 -24q-130 0 -206 85.5t-76 207.5q0 90 31 169.5t92 143t161 102.5t228 44l295 12q22 108 22 179q0 182 -200 182q-56 0 -103 -16t-76.5 -37t-57 -55.5t-39.5 -57t-28 -55.5l-153 53q22 44 43.5 78.5t62.5 79
t88 74t119.5 50.5t157.5 21q73 0 137.5 -19t116.5 -56.5t82 -100t30 -141.5q0 -74 -22 -187l-113 -592q-21 -103 -24 -139h-180zM725 330l53 274l-160 -6q-75 -3 -135.5 -12t-119 -30t-97 -54t-62.5 -86t-24 -123q0 -166 172 -166q35 0 70 7.5t70.5 26t61 32.5t63 44.5
t53.5 44.5t55 48zM467 1645h213l182 -291h-143z" />
    <glyph glyph-name="aacute" unicode="&#xe1;" horiz-adv-x="1099" 
d="M662 0l34 186h-6q-27 -29 -59 -57t-87.5 -67t-126.5 -63t-143 -24q-130 0 -206 85.5t-76 207.5q0 90 31 169.5t92 143t161 102.5t228 44l295 12q22 108 22 179q0 182 -200 182q-56 0 -103 -16t-76.5 -37t-57 -55.5t-39.5 -57t-28 -55.5l-153 53q22 44 43.5 78.5t62.5 79
t88 74t119.5 50.5t157.5 21q73 0 137.5 -19t116.5 -56.5t82 -100t30 -141.5q0 -74 -22 -187l-113 -592q-21 -103 -24 -139h-180zM725 330l53 274l-160 -6q-75 -3 -135.5 -12t-119 -30t-97 -54t-62.5 -86t-24 -123q0 -166 172 -166q35 0 70 7.5t70.5 26t61 32.5t63 44.5
t53.5 44.5t55 48zM524 1354l236 291h229l-321 -291h-144z" />
    <glyph glyph-name="acircumflex" unicode="&#xe2;" horiz-adv-x="1099" 
d="M662 0l34 186h-6q-27 -29 -59 -57t-87.5 -67t-126.5 -63t-143 -24q-130 0 -206 85.5t-76 207.5q0 90 31 169.5t92 143t161 102.5t228 44l295 12q22 108 22 179q0 182 -200 182q-56 0 -103 -16t-76.5 -37t-57 -55.5t-39.5 -57t-28 -55.5l-153 53q22 44 43.5 78.5t62.5 79
t88 74t119.5 50.5t157.5 21q73 0 137.5 -19t116.5 -56.5t82 -100t30 -141.5q0 -74 -22 -187l-113 -592q-21 -103 -24 -139h-180zM725 330l53 274l-160 -6q-75 -3 -135.5 -12t-119 -30t-97 -54t-62.5 -86t-24 -123q0 -166 172 -166q35 0 70 7.5t70.5 26t61 32.5t63 44.5
t53.5 44.5t55 48zM352 1354l279 291h180l172 -291h-152l-120 196l-199 -196h-160z" />
    <glyph glyph-name="atilde" unicode="&#xe3;" horiz-adv-x="1099" 
d="M662 0l34 186h-6q-27 -29 -59 -57t-87.5 -67t-126.5 -63t-143 -24q-130 0 -206 85.5t-76 207.5q0 90 31 169.5t92 143t161 102.5t228 44l295 12q22 108 22 179q0 182 -200 182q-56 0 -103 -16t-76.5 -37t-57 -55.5t-39.5 -57t-28 -55.5l-153 53q22 44 43.5 78.5t62.5 79
t88 74t119.5 50.5t157.5 21q73 0 137.5 -19t116.5 -56.5t82 -100t30 -141.5q0 -74 -22 -187l-113 -592q-21 -103 -24 -139h-180zM725 330l53 274l-160 -6q-75 -3 -135.5 -12t-119 -30t-97 -54t-62.5 -86t-24 -123q0 -166 172 -166q35 0 70 7.5t70.5 26t61 32.5t63 44.5
t53.5 44.5t55 48zM438 1374h-102q2 20 9.5 46t24.5 58t40 58t60.5 43.5t82.5 17.5q51 0 143 -53q3 -2 14 -8t14.5 -8t13 -7.5t14 -7.5t13 -6.5t13.5 -6t13 -4.5t13.5 -4t12 -2t12.5 -1q40 0 63 31.5t30 72.5h102q-4 -32 -17.5 -67.5t-37.5 -72t-65 -60t-91 -23.5
q-51 0 -139 53q-81 47 -129 47q-44 0 -73 -27t-34 -69z" />
    <glyph glyph-name="adieresis" unicode="&#xe4;" horiz-adv-x="1099" 
d="M662 0l34 186h-6q-27 -29 -59 -57t-87.5 -67t-126.5 -63t-143 -24q-130 0 -206 85.5t-76 207.5q0 90 31 169.5t92 143t161 102.5t228 44l295 12q22 108 22 179q0 182 -200 182q-56 0 -103 -16t-76.5 -37t-57 -55.5t-39.5 -57t-28 -55.5l-153 53q22 44 43.5 78.5t62.5 79
t88 74t119.5 50.5t157.5 21q73 0 137.5 -19t116.5 -56.5t82 -100t30 -141.5q0 -74 -22 -187l-113 -592q-21 -103 -24 -139h-180zM725 330l53 274l-160 -6q-75 -3 -135.5 -12t-119 -30t-97 -54t-62.5 -86t-24 -123q0 -166 172 -166q35 0 70 7.5t70.5 26t61 32.5t63 44.5
t53.5 44.5t55 48zM784 1415l37 184h197l-37 -184h-197zM416 1415l37 184h196l-37 -184h-196z" />
    <glyph glyph-name="aring" unicode="&#xe5;" horiz-adv-x="1099" 
d="M662 0l34 186h-6q-27 -29 -59 -57t-87.5 -67t-126.5 -63t-143 -24q-130 0 -206 85.5t-76 207.5q0 90 31 169.5t92 143t161 102.5t228 44l295 12q22 108 22 179q0 182 -200 182q-56 0 -103 -16t-76.5 -37t-57 -55.5t-39.5 -57t-28 -55.5l-153 53q22 44 43.5 78.5t62.5 79
t88 74t119.5 50.5t157.5 21q73 0 137.5 -19t116.5 -56.5t82 -100t30 -141.5q0 -74 -22 -187l-113 -592q-21 -103 -24 -139h-180zM725 330l53 274l-160 -6q-75 -3 -135.5 -12t-119 -30t-97 -54t-62.5 -86t-24 -123q0 -166 172 -166q35 0 70 7.5t70.5 26t61 32.5t63 44.5
t53.5 44.5t55 48zM502 1499q0 83 57.5 141t140.5 58t141 -58t58 -141t-58 -141t-141 -58t-140.5 58t-57.5 141zM590 1499q0 -46 32 -78t78 -32t78.5 32t32.5 78t-32.5 78.5t-78.5 32.5t-78 -32.5t-32 -78.5z" />
    <glyph glyph-name="ae" unicode="&#xe6;" horiz-adv-x="1820" 
d="M1483 330l143 -56q-13 -28 -33 -60t-61.5 -76.5t-92 -79t-127.5 -59t-163 -24.5q-85 0 -154 24.5t-111 64t-66 79t-34 78.5q-36 -43 -81.5 -83t-104.5 -78.5t-132 -61.5t-147 -23q-149 0 -230 84.5t-81 208.5q0 90 31 169.5t92 143t161 102.5t228 44l295 12
q23 113 23 179q0 182 -201 182q-56 0 -103 -16t-76.5 -37t-56.5 -56t-39 -56.5t-28 -55.5l-154 53q22 44 43.5 78.5t62.5 79t88 74t119.5 50.5t157.5 21q135 0 217.5 -61t110.5 -152q50 84 147.5 148.5t221.5 64.5q204 0 301.5 -113.5t97.5 -312.5q0 -102 -37 -211h-745
q-17 -116 -17 -197q0 -146 66 -218t186 -72q81 0 159.5 62t123.5 157zM985 733h567q15 102 15 123q0 113 -58 178.5t-161 65.5q-146 0 -256 -133q-73 -103 -107 -234zM741 330l54 274l-160 -6q-75 -3 -135.5 -12t-119 -30t-97 -54t-62.5 -86t-24 -123q0 -166 172 -166
q42 0 86.5 14t76 29.5t77.5 50t65.5 51.5t66.5 58z" />
    <glyph glyph-name="ccedilla" unicode="&#xe7;" horiz-adv-x="1062" 
d="M1010 918l-164 -48q-4 41 -15.5 76.5t-34 70.5t-62.5 55t-93 20q-100 0 -183 -63.5t-133 -162.5t-77 -211t-27 -219q0 -317 234 -317q186 0 293 221l155 -53q-29 -60 -65.5 -110.5t-89 -97.5t-125.5 -74.5t-158 -29.5l-90 -94l4 -4q24 6 70 6q53 0 95 -32t42 -95
q0 -81 -70 -136.5t-192 -55.5t-199 47l43 72q64 -31 164 -31q58 0 88.5 26t30.5 64q0 33 -22.5 52.5t-63.5 19.5q-50 0 -86 -23l-35 41l141 143q-167 23 -259.5 148t-92.5 309q0 111 24.5 222.5t76 216.5t123 185.5t174.5 129.5t222 49q299 0 357 -317z" />
    <glyph glyph-name="egrave" unicode="&#xe8;" 
d="M788 330l144 -56q-13 -28 -33 -60t-61.5 -76.5t-92 -79t-127.5 -59t-163 -24.5q-198 0 -310 127t-112 330q0 111 24 222.5t75.5 216.5t123 185.5t174.5 129.5t223 49q202 0 301 -116.5t99 -317.5q0 -106 -37 -242h-787q-16 -57 -16 -158q0 -146 66 -218t186 -72
q109 0 192.5 60.5t130.5 158.5zM250 694h608q14 96 14 123q0 137 -65 210t-174 73q-65 0 -121.5 -25t-96 -64t-73 -94.5t-54.5 -108.5t-38 -114zM457 1645h213l182 -291h-143z" />
    <glyph glyph-name="eacute" unicode="&#xe9;" 
d="M788 330l144 -56q-13 -28 -33 -60t-61.5 -76.5t-92 -79t-127.5 -59t-163 -24.5q-198 0 -310 127t-112 330q0 111 24 222.5t75.5 216.5t123 185.5t174.5 129.5t223 49q202 0 301 -116.5t99 -317.5q0 -106 -37 -242h-787q-16 -57 -16 -158q0 -146 66 -218t186 -72
q109 0 192.5 60.5t130.5 158.5zM250 694h608q14 96 14 123q0 137 -65 210t-174 73q-65 0 -121.5 -25t-96 -64t-73 -94.5t-54.5 -108.5t-38 -114zM545 1354l235 291h230l-322 -291h-143z" />
    <glyph glyph-name="ecircumflex" unicode="&#xea;" 
d="M788 330l144 -56q-13 -28 -33 -60t-61.5 -76.5t-92 -79t-127.5 -59t-163 -24.5q-198 0 -310 127t-112 330q0 111 24 222.5t75.5 216.5t123 185.5t174.5 129.5t223 49q202 0 301 -116.5t99 -317.5q0 -106 -37 -242h-787q-16 -57 -16 -158q0 -146 66 -218t186 -72
q109 0 192.5 60.5t130.5 158.5zM250 694h608q14 96 14 123q0 137 -65 210t-174 73q-65 0 -121.5 -25t-96 -64t-73 -94.5t-54.5 -108.5t-38 -114zM373 1354l278 291h180l173 -291h-152l-121 196l-199 -196h-159z" />
    <glyph glyph-name="edieresis" unicode="&#xeb;" 
d="M788 330l144 -56q-13 -28 -33 -60t-61.5 -76.5t-92 -79t-127.5 -59t-163 -24.5q-198 0 -310 127t-112 330q0 111 24 222.5t75.5 216.5t123 185.5t174.5 129.5t223 49q202 0 301 -116.5t99 -317.5q0 -106 -37 -242h-787q-16 -57 -16 -158q0 -146 66 -218t186 -72
q109 0 192.5 60.5t130.5 158.5zM250 694h608q14 96 14 123q0 137 -65 210t-174 73q-65 0 -121.5 -25t-96 -64t-73 -94.5t-54.5 -108.5t-38 -114zM436 1415l37 184h197l-37 -184h-197zM805 1415l37 184h196l-37 -184h-196z" />
    <glyph glyph-name="igrave" unicode="&#xec;" horiz-adv-x="493" 
d="M16 0l234 1210h180l-233 -1210h-181zM72 1645h213l182 -291h-143z" />
    <glyph glyph-name="iacute" unicode="&#xed;" horiz-adv-x="493" 
d="M16 0l234 1210h180l-233 -1210h-181zM221 1354l236 291h229l-321 -291h-144z" />
    <glyph glyph-name="icircumflex" unicode="&#xee;" horiz-adv-x="493" 
d="M16 0l234 1210h180l-233 -1210h-181zM49 1354l279 291h180l172 -291h-152l-120 196l-199 -196h-160z" />
    <glyph glyph-name="idieresis" unicode="&#xef;" horiz-adv-x="493" 
d="M16 0l234 1210h180l-233 -1210h-181zM113 1415l37 184h196l-37 -184h-196zM481 1415l37 184h197l-37 -184h-197z" />
    <glyph glyph-name="eth" unicode="&#xf0;" horiz-adv-x="1175" 
d="M645 1028q-106 0 -190.5 -57t-133.5 -147t-74.5 -190t-25.5 -198q0 -140 61 -228.5t181 -88.5q82 0 154.5 39.5t124 105t89 148t56 169.5t18.5 169q0 79 -24 136t-64 86.5t-82.5 42.5t-89.5 13zM414 1241l-70 70l236 110q-58 51 -142 101l119 88q105 -66 170 -121
l231 108l74 -71l-229 -107q291 -278 291 -647q0 -113 -25 -225t-78 -215t-127 -182.5t-180 -127t-229 -47.5q-198 0 -310 127t-112 330q0 142 43.5 274t120.5 233.5t190.5 162.5t243.5 61q56 0 113.5 -19.5t93.5 -58.5l4 5q-54 124 -187 260z" />
    <glyph glyph-name="ntilde" unicode="&#xf1;" horiz-adv-x="1175" 
d="M713 0l149 776q23 121 23 168q0 62 -43 96.5t-109 34.5q-25 0 -50 -4.5t-51.5 -15.5t-48 -20.5t-49 -28t-43.5 -29.5t-43.5 -33.5t-37.5 -31t-35.5 -31t-28.5 -25.5l-164 -856h-180l234 1210h180l-37 -188l4 -4q90 88 203.5 152.5t224.5 64.5q50 0 94.5 -13t83 -40
t61.5 -75t23 -112q0 -66 -20 -164l-160 -831h-180zM446 1374h-102q2 20 9.5 46t24.5 58t40 58t60.5 43.5t82.5 17.5q52 0 144 -53q3 -2 14 -8t14.5 -8t13 -7.5t14 -7.5t13 -6.5t13.5 -6t13 -4.5t13.5 -4t12 -2t12.5 -1q40 0 62.5 31t29.5 73h102q-4 -32 -17.5 -67.5
t-37.5 -72t-65 -60t-91 -23.5q-51 0 -139 53q-81 47 -129 47q-44 0 -73 -27t-34 -69z" />
    <glyph glyph-name="ograve" unicode="&#xf2;" horiz-adv-x="1175" 
d="M33 432q0 111 24.5 222.5t76 216.5t123 185.5t174.5 129.5t222 49q213 0 327 -124.5t114 -338.5q0 -112 -26.5 -224.5t-80.5 -215.5t-128.5 -182.5t-179.5 -127t-224 -47.5q-198 0 -310 127t-112 330zM221 436q0 -143 61.5 -230t180.5 -87q87 0 161.5 43.5t125 114
t86.5 160.5t52.5 182t16.5 180q0 138 -64 215.5t-200 77.5q-100 0 -183 -63.5t-133 -162.5t-77 -211t-27 -219zM475 1645h213l182 -291h-143z" />
    <glyph glyph-name="oacute" unicode="&#xf3;" horiz-adv-x="1175" 
d="M33 432q0 111 24.5 222.5t76 216.5t123 185.5t174.5 129.5t222 49q213 0 327 -124.5t114 -338.5q0 -112 -26.5 -224.5t-80.5 -215.5t-128.5 -182.5t-179.5 -127t-224 -47.5q-198 0 -310 127t-112 330zM221 436q0 -143 61.5 -230t180.5 -87q87 0 161.5 43.5t125 114
t86.5 160.5t52.5 182t16.5 180q0 138 -64 215.5t-200 77.5q-100 0 -183 -63.5t-133 -162.5t-77 -211t-27 -219zM563 1354l236 291h229l-321 -291h-144z" />
    <glyph glyph-name="ocircumflex" unicode="&#xf4;" horiz-adv-x="1175" 
d="M33 432q0 111 24.5 222.5t76 216.5t123 185.5t174.5 129.5t222 49q213 0 327 -124.5t114 -338.5q0 -112 -26.5 -224.5t-80.5 -215.5t-128.5 -182.5t-179.5 -127t-224 -47.5q-198 0 -310 127t-112 330zM221 436q0 -143 61.5 -230t180.5 -87q87 0 161.5 43.5t125 114
t86.5 160.5t52.5 182t16.5 180q0 138 -64 215.5t-200 77.5q-100 0 -183 -63.5t-133 -162.5t-77 -211t-27 -219zM391 1354l279 291h180l172 -291h-152l-120 196l-199 -196h-160z" />
    <glyph glyph-name="otilde" unicode="&#xf5;" horiz-adv-x="1175" 
d="M33 432q0 111 24.5 222.5t76 216.5t123 185.5t174.5 129.5t222 49q213 0 327 -124.5t114 -338.5q0 -112 -26.5 -224.5t-80.5 -215.5t-128.5 -182.5t-179.5 -127t-224 -47.5q-198 0 -310 127t-112 330zM221 436q0 -143 61.5 -230t180.5 -87q87 0 161.5 43.5t125 114
t86.5 160.5t52.5 182t16.5 180q0 138 -64 215.5t-200 77.5q-100 0 -183 -63.5t-133 -162.5t-77 -211t-27 -219zM477 1374h-102q2 20 9.5 46t24.5 58t40 58t60.5 43.5t82.5 17.5q51 0 143 -53q3 -2 14 -8t14.5 -8t13 -7.5t14 -7.5t13 -6.5t13.5 -6t13 -4.5t13.5 -4t12 -2
t12.5 -1q40 0 63 31.5t30 72.5h102q-4 -32 -17.5 -67.5t-37.5 -72t-65 -60t-91 -23.5q-51 0 -139 53q-81 47 -129 47q-44 0 -73 -27t-34 -69z" />
    <glyph glyph-name="odieresis" unicode="&#xf6;" horiz-adv-x="1175" 
d="M33 432q0 111 24.5 222.5t76 216.5t123 185.5t174.5 129.5t222 49q213 0 327 -124.5t114 -338.5q0 -112 -26.5 -224.5t-80.5 -215.5t-128.5 -182.5t-179.5 -127t-224 -47.5q-198 0 -310 127t-112 330zM221 436q0 -143 61.5 -230t180.5 -87q87 0 161.5 43.5t125 114
t86.5 160.5t52.5 182t16.5 180q0 138 -64 215.5t-200 77.5q-100 0 -183 -63.5t-133 -162.5t-77 -211t-27 -219zM455 1415l37 184h196l-37 -184h-196zM823 1415l37 184h197l-37 -184h-197z" />
    <glyph glyph-name="divide" unicode="&#xf7;" horiz-adv-x="1228" 
d="M96 451v135h1037v-135h-1037zM489 936q0 52 36.5 88.5t88.5 36.5t88.5 -36.5t36.5 -88.5t-36.5 -88.5t-88.5 -36.5t-88.5 36.5t-36.5 88.5zM489 100q0 52 36.5 88.5t88.5 36.5t88.5 -36.5t36.5 -88.5t-36.5 -88.5t-88.5 -36.5t-88.5 36.5t-36.5 88.5z" />
    <glyph glyph-name="oslash" unicode="&#xf8;" horiz-adv-x="1175" 
d="M229 342l652 602q-56 148 -240 148q-100 0 -183 -63.5t-133 -162.5t-77 -211t-27 -219q0 -55 8 -94zM901 868l-651 -600q27 -70 81.5 -109.5t131.5 -39.5q87 0 161.5 43.5t125 114t86.5 160.5t52.5 182t16.5 180q0 29 -4 69zM-78 57l158 146q-47 103 -47 229
q0 111 24.5 222.5t76 216.5t123 185.5t174.5 129.5t222 49q247 0 359 -170l162 149l43 -53l-170 -157q47 -94 47 -232q0 -112 -26.5 -224.5t-80.5 -215.5t-128.5 -182.5t-179.5 -127t-224 -47.5q-113 0 -199.5 44t-140.5 124l-150 -139z" />
    <glyph glyph-name="ugrave" unicode="&#xf9;" horiz-adv-x="1175" 
d="M1126 1210l-233 -1210h-180l37 188l-5 5q-90 -88 -203.5 -153t-224.5 -65q-50 0 -94.5 13t-83 40t-61.5 75t-23 112q0 61 21 164l160 831h180l-150 -776q-22 -116 -22 -168q0 -62 42.5 -96.5t108.5 -34.5q25 0 50 4.5t51.5 15.5t48 20.5t49 28t43.5 29.5t43.5 33.5
t37.5 31t35.5 31t28.5 25.5l164 856h180zM506 1645h213l182 -291h-143z" />
    <glyph glyph-name="uacute" unicode="&#xfa;" horiz-adv-x="1175" 
d="M1126 1210l-233 -1210h-180l37 188l-5 5q-90 -88 -203.5 -153t-224.5 -65q-50 0 -94.5 13t-83 40t-61.5 75t-23 112q0 61 21 164l160 831h180l-150 -776q-22 -116 -22 -168q0 -62 42.5 -96.5t108.5 -34.5q25 0 50 4.5t51.5 15.5t48 20.5t49 28t43.5 29.5t43.5 33.5
t37.5 31t35.5 31t28.5 25.5l164 856h180zM532 1354l236 291h229l-321 -291h-144z" />
    <glyph glyph-name="ucircumflex" unicode="&#xfb;" horiz-adv-x="1175" 
d="M1126 1210l-233 -1210h-180l37 188l-5 5q-90 -88 -203.5 -153t-224.5 -65q-50 0 -94.5 13t-83 40t-61.5 75t-23 112q0 61 21 164l160 831h180l-150 -776q-22 -116 -22 -168q0 -62 42.5 -96.5t108.5 -34.5q25 0 50 4.5t51.5 15.5t48 20.5t49 28t43.5 29.5t43.5 33.5
t37.5 31t35.5 31t28.5 25.5l164 856h180zM375 1354l278 291h181l172 -291h-152l-121 196l-198 -196h-160z" />
    <glyph glyph-name="udieresis" unicode="&#xfc;" horiz-adv-x="1175" 
d="M1126 1210l-233 -1210h-180l37 188l-5 5q-90 -88 -203.5 -153t-224.5 -65q-50 0 -94.5 13t-83 40t-61.5 75t-23 112q0 61 21 164l160 831h180l-150 -776q-22 -116 -22 -168q0 -62 42.5 -96.5t108.5 -34.5q25 0 50 4.5t51.5 15.5t48 20.5t49 28t43.5 29.5t43.5 33.5
t37.5 31t35.5 31t28.5 25.5l164 856h180zM424 1415l37 184h196l-36 -184h-197zM793 1415l36 184h197l-37 -184h-196z" />
    <glyph glyph-name="yacute" unicode="&#xfd;" horiz-adv-x="1024" 
d="M291 18l-205 1192h188l123 -854q11 -84 11 -155h12q23 79 76 180l430 829h200l-700 -1286l-59 -108q-131 -230 -320 -230q-76 0 -137 21l35 151q6 -2 22 -7.5t30.5 -9t31.5 -3.5q57 0 100.5 33t93.5 123zM487 1354l236 291h229l-321 -291h-144z" />
    <glyph glyph-name="thorn" unicode="&#xfe;" horiz-adv-x="1175" 
d="M-57 -385l379 1976h180l-103 -532h4q63 77 158 126.5t189 49.5q152 0 248 -110.5t96 -317.5q0 -116 -22 -232t-68.5 -224.5t-111.5 -192t-158 -133.5t-202 -50t-173 44t-132 145l-104 -549h-180zM369 901l-115 -598q26 -43 44 -67t48.5 -53t70 -42.5t89.5 -13.5
q83 0 152 46.5t113.5 119.5t75.5 164t44.5 177t13.5 163q0 129 -51 207.5t-164 78.5q-176 0 -321 -182z" />
    <glyph glyph-name="ydieresis" unicode="&#xff;" horiz-adv-x="1024" 
d="M291 18l-205 1192h188l123 -854q11 -84 11 -155h12q23 79 76 180l430 829h200l-700 -1286l-59 -108q-131 -230 -320 -230q-76 0 -137 21l35 151q6 -2 22 -7.5t30.5 -9t31.5 -3.5q57 0 100.5 33t93.5 123zM348 1415l37 184h197l-37 -184h-197zM717 1415l37 184h196
l-37 -184h-196z" />
    <glyph glyph-name="dotlessi" unicode="&#x131;" horiz-adv-x="493" 
d="M16 0l234 1210h180l-233 -1210h-181z" />
    <glyph glyph-name="Lslash" unicode="&#x141;" horiz-adv-x="985" 
d="M12 0l109 559l-160 -94l29 143l157 92l146 758h188l-123 -635l471 275l-28 -144l-469 -272l-101 -522h625l-29 -160h-815z" />
    <glyph glyph-name="lslash" unicode="&#x142;" horiz-adv-x="493" 
d="M16 0l119 627l-162 -103l27 127l160 101l162 839h180l-135 -710l190 120l-27 -127l-188 -118l-145 -756h-181z" />
    <glyph glyph-name="OE" unicode="&#x152;" horiz-adv-x="1781" 
d="M999 152h582l-29 -152h-657q-81 0 -160 -6q-159 -6 -160 -6q-228 0 -366.5 149t-138.5 436q0 70 13.5 149t43.5 166.5t73 170t106.5 157.5t139 131.5t176 89.5t212.5 33q84 0 170 -6q19 -1 54 -2.5t63.5 -2.5t52.5 -1h638l-30 -151h-561l-91 -476h525l-29 -151h-524z
M815 168l217 1132q-116 19 -211 19q-103 0 -194 -46t-155.5 -122.5t-112 -174.5t-70.5 -203.5t-23 -207.5q0 -198 96 -308t295 -110q62 0 158 21z" />
    <glyph glyph-name="oe" unicode="&#x153;" horiz-adv-x="1972" 
d="M57 432q0 111 24.5 222.5t76 216.5t123.5 186t175 129.5t222 48.5q142 0 244.5 -61.5t136.5 -180.5q47 93 166.5 167.5t273.5 74.5q202 0 300.5 -116.5t98.5 -317.5q0 -109 -36 -242h-787q-16 -57 -16 -158q0 -146 66 -218t186 -72q109 0 192.5 60.5t130.5 158.5l144 -56
q-13 -28 -33 -60t-62 -76.5t-92.5 -79t-127.5 -59t-163 -24.5q-147 0 -247 68t-140 190q-62 -119 -177.5 -188.5t-256.5 -69.5q-198 0 -310 127t-112 330zM1096 694h608q14 96 14 123q0 137 -65 210t-174 73q-93 0 -165.5 -49.5t-111.5 -108.5q-31 -44 -53 -92t-30.5 -76
t-22.5 -80zM246 436q0 -144 58 -230.5t173 -86.5q91 0 167 43.5t126.5 113.5t86 160.5t51.5 182t16 180.5q0 138 -63.5 215.5t-196.5 77.5q-80 0 -150 -42t-118 -110t-82.5 -154.5t-51 -176t-16.5 -173.5z" />
    <glyph glyph-name="Scaron" unicode="&#x160;" 
d="M-29 285l181 59q5 -42 20.5 -78.5t45.5 -70.5t84 -54t126 -20q139 0 237.5 85.5t98.5 201.5q0 82 -47 132t-164 111l-184 97q-96 50 -148.5 130.5t-52.5 182.5q0 202 138 315t380 113q158 0 266.5 -70.5t132.5 -197.5l-182 -56q-5 72 -64 122t-177 50q-78 0 -138 -23.5
t-93 -62t-49.5 -81.5t-16.5 -87q0 -74 43.5 -126t132.5 -95l155 -76q69 -34 112.5 -63.5t81 -72.5t54.5 -100.5t17 -135.5q0 -125 -69.5 -227t-193 -160t-274.5 -58q-76 0 -140.5 13.5t-109 35.5t-80.5 52t-57 58.5t-36 60.5t-21 54t-9 42zM580 1550l-172 291h151l121 -196
l199 196h159l-278 -291h-180z" />
    <glyph glyph-name="scaron" unicode="&#x161;" horiz-adv-x="985" 
d="M-37 279l166 55q0 -25 8 -54t27.5 -59t47 -54.5t70 -40t93.5 -15.5q135 0 211 62t76 167q0 31 -9 55.5t-21 40.5t-39.5 32.5t-48 26t-63.5 27.5l-178 76q-106 42 -146 110t-40 158q0 71 29.5 136.5t83 117.5t139 83.5t188.5 31.5q79 0 143.5 -20.5t103 -50t67 -68.5
t40 -70t17.5 -61l-164 -50q0 26 -11.5 55.5t-36 60t-70.5 50t-107 19.5q-107 0 -174.5 -56.5t-67.5 -150.5q0 -59 34.5 -101t119.5 -73l163 -64q116 -44 172 -108.5t56 -165.5q0 -79 -28.5 -150t-84.5 -129.5t-149.5 -92.5t-212.5 -34q-67 0 -123.5 12t-95 29.5t-69.5 46.5
t-49 53t-33 59t-21 54.5t-13 49.5zM502 1354l-172 291h151l121 -197l199 197h160l-279 -291h-180z" />
    <glyph glyph-name="Ydieresis" unicode="&#x178;" horiz-adv-x="1251" 
d="M414 0l114 596l-346 862h213l193 -518q34 -89 59 -186h10q56 100 117 178l402 526h229l-688 -862l-115 -596h-188zM522 1612l37 184h197l-37 -184h-197zM891 1612l37 184h196l-37 -184h-196z" />
    <glyph glyph-name="Zcaron" unicode="&#x17d;" horiz-adv-x="1062" 
d="M-98 0l32 172l951 1135h-703l29 151h932l-35 -178l-958 -1128h753l-31 -152h-970zM541 1550l-172 291h151l121 -196l199 196h159l-278 -291h-180z" />
    <glyph glyph-name="zcaron" unicode="&#x17e;" horiz-adv-x="985" 
d="M154 135h671l-28 -135h-895l28 139l840 936h-637l25 135h856l-29 -147zM502 1354l-172 291h151l121 -197l199 197h160l-279 -291h-180z" />
    <glyph glyph-name="florin" unicode="&#x192;" 
d="M-45 -229l74 120q47 -28 94 -28q72 0 112.5 46t65.5 152l158 684h-219l28 127h217l72 289q42 167 119.5 247.5t220.5 80.5q130 0 201 -57l-84 -123q-60 37 -111 37q-65 0 -106.5 -43t-65.5 -148l-65 -283h223l-29 -127h-221l-166 -690q-18 -74 -43.5 -131t-65 -105
t-98 -74t-133.5 -26q-107 0 -178 52z" />
    <glyph glyph-name="circumflex" unicode="&#x2c6;" horiz-adv-x="493" 
d="M49 1354l279 291h180l172 -291h-152l-120 196l-199 -196h-160z" />
    <glyph glyph-name="caron" unicode="&#x2c7;" horiz-adv-x="493" 
d="M256 1354l-172 291h152l120 -197l199 197h160l-279 -291h-180z" />
    <glyph glyph-name="uni02C9" unicode="&#x2c9;" horiz-adv-x="493" 
d="M94 1444l27 110h569l-26 -110h-570z" />
    <glyph glyph-name="breve" unicode="&#x2d8;" horiz-adv-x="493" 
d="M78 1638h94q0 -80 50 -128t140 -48q177 0 242 176h94q-25 -123 -117.5 -200.5t-224.5 -77.5q-133 0 -205.5 70.5t-72.5 207.5z" />
    <glyph glyph-name="dotaccent" unicode="&#x2d9;" horiz-adv-x="493" 
d="M297 1415l37 184h196l-36 -184h-197z" />
    <glyph glyph-name="ring" unicode="&#x2da;" horiz-adv-x="493" 
d="M199 1499q0 83 57.5 141t140.5 58t141 -58t58 -141t-58 -141t-141 -58t-140.5 58t-57.5 141zM287 1499q0 -46 32 -78t78 -32t78.5 32t32.5 78t-32.5 78.5t-78.5 32.5t-78 -32.5t-32 -78.5z" />
    <glyph glyph-name="ogonek" unicode="&#x2db;" horiz-adv-x="493" 
d="M270 47h111q-60 -44 -91 -67.5t-73 -61.5t-61 -71t-19 -64q0 -45 30 -69.5t75 -24.5q70 0 139 43l-19 -97q-93 -49 -208 -49q-79 0 -123.5 41t-44.5 97q0 40 16.5 77t50 71t57 53.5t64.5 49.5z" />
    <glyph glyph-name="tilde" unicode="&#x2dc;" horiz-adv-x="493" 
d="M135 1374h-102q2 20 9.5 46t24.5 58t40 58t60.5 43.5t82.5 17.5q51 0 143 -53q3 -2 14 -8t14.5 -8t13 -7.5t14 -7.5t13 -6.5t13.5 -6t13 -4.5t13.5 -4t12 -2t12.5 -1q40 0 62.5 31t29.5 73h103q-4 -32 -17.5 -67.5t-37.5 -72t-65 -60t-91 -23.5q-51 0 -139 53
q-81 47 -129 47q-44 0 -73 -27t-34 -69z" />
    <glyph glyph-name="hungarumlaut" unicode="&#x2dd;" horiz-adv-x="493" 
d="M16 1354l236 291h229l-321 -291h-144zM385 1354l236 291h229l-322 -291h-143z" />
    <glyph glyph-name="uni03A9" unicode="&#x3a9;" horiz-adv-x="1470" 
d="M274 137l2 6q-97 108 -139.5 274t0.5 369q66 304 282 499.5t480 195.5q109 0 197.5 -37t145 -101.5t92 -151t38 -186.5t-17.5 -208q-44 -210 -161 -382t-255 -272l-2 -6h307l-31 -137h-495l22 100q145 87 269 259.5t174 404.5q14 69 16 137.5t-8 133t-35.5 120t-63.5 97
t-95.5 65.5t-127.5 24q-200 0 -357.5 -165.5t-211.5 -415.5q-47 -220 4 -399.5t158 -260.5l-23 -100h-493l28 137h301z" />
    <glyph glyph-name="uni03BC" unicode="&#x3bc;" horiz-adv-x="1175" 
d="M1126 1210l-233 -1210h-180l37 188l-5 5q-89 -87 -199.5 -152.5t-209.5 -65.5q-42 0 -81.5 21.5t-61.5 54.5l-84 -436h-181l308 1595h180l-150 -776q-22 -116 -22 -168q0 -62 42.5 -96.5t108.5 -34.5q25 0 50 4.5t51.5 15.5t48 20.5t49 28t43.5 29.5t43.5 33.5t37.5 31
t35.5 31t28.5 25.5l164 856h180z" />
    <glyph glyph-name="pi" unicode="&#x3c0;" horiz-adv-x="1175" 
d="M1167 944h-163l-136 -639q-41 -189 -37 -305h-159q-21 60 28 293l140 651h-363q-59 -225 -163 -514t-187 -430h-160q89 163 190.5 443.5t155.5 500.5q-152 0 -229 -24l-2 108q98 57 309 57h821z" />
    <glyph glyph-name="endash" unicode="&#x2013;" horiz-adv-x="1024" 
d="M-37 539l25 135h1024l-25 -135h-1024z" />
    <glyph glyph-name="emdash" unicode="&#x2014;" horiz-adv-x="2048" 
d="M-37 539l25 135h2048l-25 -135h-2048z" />
    <glyph glyph-name="quoteleft" unicode="&#x2018;" horiz-adv-x="569" 
d="M193 1108l270 483h151l-217 -483h-204z" />
    <glyph glyph-name="quoteright" unicode="&#x2019;" horiz-adv-x="569" 
d="M172 1108l217 483h205l-270 -483h-152z" />
    <glyph glyph-name="quotesinglbase" unicode="&#x201a;" horiz-adv-x="569" 
d="M-102 -270l217 483h204l-270 -483h-151z" />
    <glyph glyph-name="quotedblleft" unicode="&#x201c;" horiz-adv-x="909" 
d="M565 1108l271 483h151l-217 -483h-205zM197 1108l270 483h151l-217 -483h-204z" />
    <glyph glyph-name="quotedblright" unicode="&#x201d;" horiz-adv-x="909" 
d="M188 1108l218 483h204l-270 -483h-152zM557 1108l217 483h205l-270 -483h-152z" />
    <glyph glyph-name="quotedblbase" unicode="&#x201e;" horiz-adv-x="909" 
d="M-115 -270l217 483h205l-270 -483h-152zM254 -270l217 483h205l-270 -483h-152z" />
    <glyph glyph-name="dagger" unicode="&#x2020;" 
d="M285 -254l223 1145h-402l31 151h400l81 416h181l-82 -416h401l-31 -151h-399l-223 -1145h-180z" />
    <glyph glyph-name="daggerdbl" unicode="&#x2021;" 
d="M-16 131l28 152h381l123 632h-381l29 152h383l76 391h180l-76 -391h381l-29 -152h-383l-123 -632h383l-28 -152h-383l-76 -385h-180l76 385h-381z" />
    <glyph glyph-name="bullet" unicode="&#x2022;" horiz-adv-x="1024" 
d="M147 729q0 151 107 258t258 107t258 -107t107 -258t-107 -257.5t-258 -106.5t-258 106.5t-107 257.5z" />
    <glyph glyph-name="ellipsis" unicode="&#x2026;" horiz-adv-x="2048" 
d="M100 0l41 213h201l-41 -213h-201zM782 0l41 213h201l-41 -213h-201zM1464 0l41 213h201l-41 -213h-201z" />
    <glyph glyph-name="perthousand" unicode="&#x2030;" horiz-adv-x="2199" 
d="M1012 86q55 0 98 27t68 68t41.5 95.5t22 102t5.5 94.5q0 78 -34.5 121t-100.5 43q-64 0 -112.5 -39.5t-73.5 -102t-37 -124t-12 -119.5q0 -70 35.5 -118t99.5 -48zM995 -25q-30 0 -60 5t-68 23.5t-66.5 48.5t-48 86t-19.5 130q0 63 13.5 128t45 128.5t76 113t112 80
t148.5 30.5q30 0 60 -5t68.5 -23.5t66.5 -48.5t48 -86t20 -130q0 -63 -14 -128t-45 -128.5t-76 -113t-112.5 -80t-148.5 -30.5zM1735 -25q-30 0 -60 5t-68 23.5t-66.5 48.5t-48 86t-19.5 130q0 63 13.5 128t45 128.5t76 113t112 80t148.5 30.5q30 0 60 -5t68 -23.5
t66.5 -48.5t48 -86t19.5 -130q0 -63 -13.5 -128t-45 -128.5t-76 -113t-112 -80t-148.5 -30.5zM1751 86q68 0 117.5 39.5t73.5 102.5t34.5 123.5t10.5 121.5q0 78 -34.5 121t-101.5 43q-64 0 -112.5 -39.5t-73.5 -102t-37 -124t-12 -119.5q0 -70 35.5 -118t99.5 -48zM344 717
q-30 0 -60 5t-68 23.5t-66.5 48.5t-48 86t-19.5 130q0 63 13.5 128t45 128.5t76 112.5t112 79.5t148.5 30.5q30 0 60 -5t68 -23.5t66.5 -48.5t48 -86t19.5 -130q0 -63 -13.5 -128t-45 -128.5t-76 -112.5t-112 -79.5t-148.5 -30.5zM360 827q68 0 117.5 39.5t73.5 102.5
t34.5 123.5t10.5 121.5q0 78 -34.5 121t-100.5 43q-52 0 -94 -27t-68 -68.5t-43 -94.5t-24 -101.5t-7 -93.5q0 -70 35.5 -118t99.5 -48zM111 -49l1099 1562h144l-1100 -1562h-143z" />
    <glyph glyph-name="guilsinglleft" unicode="&#x2039;" horiz-adv-x="569" 
d="M41 631l381 422l102 -86l-305 -361l166 -399l-123 -60z" />
    <glyph glyph-name="guilsinglright" unicode="&#x203a;" horiz-adv-x="569" 
d="M463 569l-381 -422l-102 86l305 361l-166 399l123 60z" />
    <glyph glyph-name="fraction" unicode="&#x2044;" horiz-adv-x="342" 
d="M-340 -49l887 1562h135l-887 -1562h-135z" />
    <glyph glyph-name="Euro" unicode="&#x20ac;" 
d="M70 676q10 75 41 201h-136l70 112h105q43 119 114.5 211t143.5 146q183 143 440 143q75 0 143 -11.5t115.5 -30t73 -30.5t43.5 -24l-99 -156q-75 56 -162 78t-145 22q-210 0 -342 -151q-73 -81 -123 -197h613l-72 -112h-582q-29 -103 -43 -201h498l-72 -113h-436
q-14 -207 76 -323q94 -119 291 -119q119 0 254 53q84 35 143 74l-31 -178q-63 -33 -143 -58q-121 -41 -285 -41q-277 0 -411 199q-104 154 -95 393h-137l72 113h78z" />
    <glyph glyph-name="afii61289" unicode="&#x2113;" horiz-adv-x="1001" 
d="M788 317l62 -69q-190 -262 -442 -262q-86 0 -145.5 31t-86.5 83.5t-35.5 122t6.5 146.5q1 4 3.5 13t3.5 13q-88 -60 -138 -96l-28 94q148 108 194 146l121 567q29 136 77.5 236.5t107 156.5t118.5 82.5t123 26.5q126 0 171.5 -94.5t14.5 -245.5q-39 -185 -188 -372.5
t-395 -389.5l-15 -72q-33 -160 12.5 -238.5t141.5 -78.5q87 0 170 58.5t147 141.5zM461 1114l-94 -444q180 163 293 310.5t143 287.5q45 217 -98 217q-30 0 -61.5 -19.5t-65.5 -60t-65 -116t-52 -175.5z" />
    <glyph glyph-name="trademark" unicode="&#x2122;" horiz-adv-x="2048" 
d="M395 618v734h-266v110h668v-110h-267v-734h-135zM1759 618v709h-4l-278 -709h-88l-279 709h-4v-709h-135v844h213l252 -641l247 641h211v-844h-135z" />
    <glyph glyph-name="Omega" unicode="&#x2126;" horiz-adv-x="1470" 
d="M274 137l2 6q-97 108 -139.5 274t0.5 369q66 304 282 499.5t480 195.5q109 0 197.5 -37t145 -101.5t92 -151t38 -186.5t-17.5 -208q-44 -210 -161 -382t-255 -272l-2 -6h307l-31 -137h-495l22 100q145 87 269 259.5t174 404.5q14 69 16 137.5t-8 133t-35.5 120t-63.5 97
t-95.5 65.5t-127.5 24q-200 0 -357.5 -165.5t-211.5 -415.5q-47 -220 4 -399.5t158 -260.5l-23 -100h-493l28 137h301z" />
    <glyph glyph-name="estimated" unicode="&#x212e;" horiz-adv-x="1984" 
d="M1913 711h-1362q-10 0 -10 -9v-411q0 -29 18 -47q101 -106 234 -166t280 -60q159 0 300 67t243 185h121q-116 -136 -291.5 -214.5t-374.5 -78.5q-171 0 -326.5 60t-268 161t-179 240.5t-66.5 292.5q0 123 42.5 239t120.5 209t181 163t231 108.5t265 38.5q171 0 327 -60
t269 -161.5t179.5 -242t66.5 -294.5v-20zM1604 764v416q0 28 -21 49q-102 100 -233.5 157.5t-276.5 57.5q-146 0 -278.5 -59.5t-233.5 -163.5q-20 -17 -20 -52v-405q0 -12 10 -12h1044q9 0 9 12z" />
    <glyph glyph-name="partialdiff" unicode="&#x2202;" horiz-adv-x="1126" 
d="M352 1401l-28 121q171 116 368 116q103 0 184.5 -47.5t136.5 -145t65 -246t-31 -349.5q-53 -252 -154 -445t-248 -306t-319 -113q-78 0 -139 27t-96 73.5t-55.5 108.5t-18.5 131t14 141q51 238 211 386t340 148q65 0 120 -21t89 -53t54 -61.5t29 -56.5h3l10.5 45.5
t9.5 42.5q36 181 15 315t-92 211.5t-175 77.5q-153 0 -293 -100zM369 123h2q69 0 138.5 43.5t127.5 117.5t106 167t80 196q-4 35 -21 72t-45.5 71t-75 56t-101.5 22q-124 0 -237.5 -118.5t-147.5 -282.5q-33 -151 14 -247.5t160 -96.5z" />
    <glyph glyph-name="Delta" unicode="&#x2206;" horiz-adv-x="1327" 
d="M-90 0l22 111l803 1386h191l207 -1384l-25 -113h-1198zM104 135h857l-123 780q-5 43 -27.5 188.5t-24.5 199.5h-8q-19 -43 -95 -175.5t-101 -179.5z" />
    <glyph glyph-name="product" unicode="&#x220f;" horiz-adv-x="1587" 
d="M1536 1307h-221v-1508h-162v1508h-561v-1508h-162v1508h-223v151h1329v-151z" />
    <glyph glyph-name="summation" unicode="&#x2211;" horiz-adv-x="1288" 
d="M1245 -201h-1044v109l547 719l-523 714v117h987v-143h-761v-6l485 -658l-526 -690v-6h835v-156z" />
    <glyph glyph-name="minus" unicode="&#x2212;" horiz-adv-x="1228" 
d="M96 451v135h1037v-135h-1037z" />
    <glyph glyph-name="uni2215" unicode="&#x2215;" horiz-adv-x="342" 
d="M-340 -49l887 1562h135l-887 -1562h-135z" />
    <glyph glyph-name="uni2219" unicode="&#x2219;" horiz-adv-x="569" 
d="M160 651q0 53 36 89t89 36t89 -36t36 -89t-36 -89t-89 -36t-89 36t-36 89z" />
    <glyph glyph-name="radical" unicode="&#x221a;" horiz-adv-x="1339" 
d="M1341 1735l-456 -2044h-144l-325 962l-154 -57l-33 100l289 113l256 -764q5 -20 19 -76.5t18 -79.5h2q2 12 29 156l379 1690h120z" />
    <glyph glyph-name="infinity" unicode="&#x221e;" horiz-adv-x="1640" 
d="M1538 606v-2q0 -147 -93.5 -239.5t-221.5 -92.5q-93 0 -179 58t-198 188q-41 -46 -68 -75t-68.5 -65.5t-77 -56.5t-82 -34.5t-95.5 -14.5q-126 0 -218 94t-92 230q0 143 92.5 236.5t233.5 93.5q105 0 194 -64t187 -180q36 40 46 51.5t44 47t51 48t51 37t60 34t61.5 18
t71.5 8.5q134 0 217.5 -89t83.5 -231zM469 375h2q27 0 53 6t53 22t45.5 28t46.5 39t40 39t42 45t37 40q-33 41 -40.5 50t-38.5 44t-44.5 46.5t-43 35t-51.5 32t-52 17t-61 8.5q-94 0 -149.5 -67.5t-55.5 -165.5q2 -93 62 -156t155 -63zM1225 827h-2q-39 0 -77.5 -15
t-74.5 -44t-61 -53t-59 -61.5t-46 -49.5q75 -86 121 -130t97.5 -71.5t105.5 -27.5q92 0 147.5 67.5t55.5 153.5q0 107 -57.5 169t-149.5 62z" />
    <glyph glyph-name="integral" unicode="&#x222b;" horiz-adv-x="903" 
d="M868 1755l-24 -115q-32 21 -76 21q-64 0 -102 -49q-38 -45 -54 -133t-16 -238q0 -162 14.5 -517t14.5 -529q0 -283 -88 -422q-32 -55 -88 -83t-121 -28q-39 0 -78 11t-60 24l29 119q56 -25 92 -25q60 0 95 47q69 89 69 357q0 176 -14.5 536t-14.5 524q0 174 25.5 278.5
t85.5 168.5q79 82 199 82q31 0 63.5 -9t48.5 -20z" />
    <glyph glyph-name="approxequal" unicode="&#x2248;" horiz-adv-x="1189" 
d="M1030 901l66 -59q-99 -199 -267 -199q-40 0 -80.5 12.5t-68 26.5t-90.5 49q-59 35 -102 52.5t-89 17.5q-65 0 -110 -39.5t-92 -114.5l-68 58q47 92 121.5 145t163.5 53q35 0 72 -10.5t56.5 -19.5t56 -30t42.5 -24q4 -2 23 -13t23 -13t20 -10.5t21.5 -10.5t19.5 -7.5
t21.5 -7.5t20 -4.5t23.5 -3.5t23 -1q59 0 104 37t90 116zM1030 545l66 -58q-100 -198 -267 -198q-40 0 -80.5 12.5t-68 26.5t-90.5 49q-117 69 -191 69q-65 0 -110 -40t-92 -115l-68 57q46 94 120.5 147.5t162.5 53.5q29 0 56 -5t54.5 -16.5t41.5 -18.5t43.5 -24.5
t33.5 -19.5q9 -5 38 -21t40.5 -21t33.5 -14.5t41.5 -12.5t41.5 -3q60 0 103 36.5t91 115.5z" />
    <glyph glyph-name="notequal" unicode="&#x2260;" horiz-adv-x="1228" 
d="M897 1049l-92 -201h319v-107h-360l-137 -299h497v-104h-538l-111 -242l-84 37l94 205h-305v104h348l136 299h-484v107h525l108 237z" />
    <glyph glyph-name="lessequal" unicode="&#x2264;" horiz-adv-x="1261" 
d="M1153 203l-928 467v110l928 467v-127l-815 -391v-4l815 -395v-127zM1159 10h-944v109h944v-109z" />
    <glyph glyph-name="greaterequal" unicode="&#x2265;" horiz-adv-x="1261" 
d="M227 1247l928 -467v-110l-928 -467v127l815 393v4l-815 393v127zM1157 10h-940v109h940v-109z" />
    <glyph glyph-name="lozenge" unicode="&#x25ca;" horiz-adv-x="1339" 
d="M1229 729l-416 -823h-133l-408 823l414 823h133zM1079 725l-288 573q-31 82 -39 113h-4q-19 -63 -41 -113l-285 -567l289 -579q26 -59 37 -109h6q21 71 37 107z" />
    </font>
</defs>
</svg>
