<?xml version="1.0" standalone="no"?>
<!DOCTYPE svg PUBLIC "-//W3C//DTD SVG 1.1//EN" "http://www.w3.org/Graphics/SVG/1.1/DTD/svg11.dtd" >
<svg xmlns="http://www.w3.org/2000/svg" xmlns:xlink="http://www.w3.org/1999/xlink" version="1.1">
<metadata>
Created by FontForge 20170731 at Tue Apr 18 07:59:37 2023
 By Aleksey,,,
Copyright (c) 1991, 2002 Adobe Systems Incorporated.  All Rights Reserved. (c) 1981, 2002 Heidelberger Druckmaschinen AG. All rights reserved.
</metadata>
<defs>
<font id="VectoraLTStd-Roman" horiz-adv-x="1138" >
  <font-face 
    font-family="Vectora LT Std Roman"
    font-weight="400"
    font-stretch="normal"
    units-per-em="2048"
    panose-1="2 11 5 6 3 5 3 2 2 4"
    ascent="1591"
    descent="-457"
    x-height="1210"
    cap-height="1458"
    bbox="-291 -512 2152 1929"
    underline-thickness="102"
    underline-position="-307"
    unicode-range="U+0020-FB02"
  />
<missing-glyph horiz-adv-x="1024" 
d="M0 0v1434h1024v-1434h-1024zM512 809l348 522h-696zM573 717l349 -522v1044zM164 102h696l-348 523zM102 1239v-1044l349 522z" />
    <glyph glyph-name="fi" unicode="fi" 
d="M668 1591v-143q-68 22 -119 22q-44 0 -75 -13.5t-47.5 -33t-25 -53.5t-10.5 -61.5t-2 -71.5v-123h219v-135h-219v-979h-180v979h-170v135h170v105q0 67 7.5 121t29 107t57 88t94.5 57t138 22q53 0 133 -23zM801 0v1210h180v-1210h-180zM791 1411v180h200v-180h-200z" />
    <glyph glyph-name="fl" unicode="fl" 
d="M668 1591v-143q-68 22 -119 22q-44 0 -75 -13.5t-47.5 -33t-25 -53.5t-10.5 -61.5t-2 -71.5v-123h219v-135h-219v-979h-180v979h-170v135h170v105q0 67 7.5 121t29 107t57 88t94.5 57t138 22q53 0 133 -23zM801 0v1591h180v-1591h-180z" />
    <glyph glyph-name=".notdef" horiz-adv-x="1024" 
d="M0 0v1434h1024v-1434h-1024zM512 809l348 522h-696zM573 717l349 -522v1044zM164 102h696l-348 523zM102 1239v-1044l349 522z" />
    <glyph glyph-name=".null" horiz-adv-x="0" 
 />
    <glyph glyph-name="nonmarkingreturn" horiz-adv-x="682" 
 />
    <glyph glyph-name="space" unicode=" " horiz-adv-x="569" 
 />
    <glyph glyph-name="exclam" unicode="!" horiz-adv-x="647" 
d="M252 406l-29 1052h201l-29 -1052h-143zM223 213h201v-213h-201v213z" />
    <glyph glyph-name="quotedbl" unicode="&#x22;" horiz-adv-x="909" 
d="M195 1104v487h163v-487h-163zM551 1104v487h164v-487h-164z" />
    <glyph glyph-name="numbersign" unicode="#" 
d="M1012 573v-110h-213l-64 -463h-125l64 463h-266l-64 -463h-125l64 463h-213v110h229l41 312h-217v110h233l64 463h125l-64 -463h267l63 463h125l-64 -463h197v-110h-213l-41 -312h197zM731 885h-266l-41 -312h266z" />
    <glyph glyph-name="dollar" unicode="$" 
d="M614 639v-512q105 18 164.5 89.5t59.5 158.5q0 45 -11.5 82.5t-26.5 60t-40 42.5t-39 27.5t-37 18.5zM524 864v471q-104 -12 -156.5 -75t-52.5 -158q0 -39 11.5 -71.5t25.5 -52.5t45.5 -42.5t50.5 -33t62 -31.5q9 -5 14 -7zM524 -152v121q-88 2 -162.5 25t-122.5 56
t-84.5 76.5t-55 80t-29.5 72.5l182 67q10 -39 29.5 -74t51 -68.5t80.5 -55t111 -25.5v559l-192 88q-217 100 -217 320q0 77 24 141.5t63.5 109t92.5 77t110.5 49.5t118.5 22v121h90v-121q313 -17 404 -266l-184 -62q-22 83 -81.5 124.5t-138.5 49.5v-510l156 -67
q36 -16 63.5 -30.5t69 -47t68.5 -70.5t47 -98.5t20 -132.5q0 -44 -10 -89.5t-39 -100t-74 -98t-123 -77.5t-178 -43v-123h-90z" />
    <glyph glyph-name="percent" unicode="%" horiz-adv-x="1630" 
d="M403 821q81 0 136 68.5t55 191.5q0 132 -49.5 208.5t-145.5 76.5q-90 0 -138 -77t-48 -208q0 -120 55 -190t135 -70zM403 698q-105 0 -182.5 56t-114 145t-36.5 197q0 106 36.5 193.5t114 143.5t182.5 56q80 0 144.5 -32t105 -87t62.5 -125t22 -149q0 -108 -37 -197
t-114.5 -145t-182.5 -56zM1227 -25q-105 0 -182.5 56t-114.5 145t-37 197q0 79 22 149t62.5 125t105 87t144.5 32t144.5 -32t105 -87t62.5 -125t22 -149q0 -108 -37 -197t-114.5 -145t-182.5 -56zM1227 98q81 0 135.5 68.5t54.5 191.5q0 132 -49 208.5t-145 76.5
q-90 0 -138.5 -77t-48.5 -208q0 -120 55.5 -190t135.5 -70zM1155 1513h123l-803 -1562h-123z" />
    <glyph glyph-name="ampersand" unicode="&#x26;" horiz-adv-x="1402" 
d="M1124 268l244 -268h-233l-129 150q-56 -46 -85.5 -67t-85 -51.5t-116 -43.5t-135.5 -13q-111 0 -200 29t-142 74t-88.5 103t-48.5 110t-13 102q0 76 24 139.5t68.5 111t95 81.5t115.5 63q-43 47 -64.5 72.5t-49.5 63.5t-40.5 67.5t-22 68t-9.5 81.5q0 145 109 246.5
t298 101.5q82 0 150 -22t111 -57t72.5 -79t42 -85.5t12.5 -80.5q0 -50 -13 -96.5t-31.5 -81t-50 -69t-56 -55.5t-63 -45.5t-58.5 -35.5t-54 -28l332 -359q111 170 114 383h181q-4 -59 -10 -101t-23.5 -113t-54.5 -146t-93 -150zM899 262l-387 416q-131 -69 -181 -126.5
t-50 -160.5q0 -121 84 -196.5t215 -75.5q179 0 319 143zM397 1137q0 -41 14.5 -81.5t45.5 -81.5t49 -61t53 -57q131 66 193.5 130.5t62.5 152.5q0 93 -55.5 150t-159.5 57q-92 0 -147.5 -58t-55.5 -151z" />
    <glyph glyph-name="quotesingle" unicode="'" horiz-adv-x="569" 
d="M203 1104v487h164v-487h-164z" />
    <glyph glyph-name="parenleft" unicode="(" horiz-adv-x="569" 
d="M541 -203l-117 -71q-44 68 -66.5 103t-63.5 106t-63 120t-52 124.5t-45 142t-26.5 151t-11.5 170.5q0 100 12.5 193.5t40.5 180t53.5 152t71.5 146.5t72.5 124t77.5 122l117 -72q-53 -86 -77 -128t-63.5 -116.5t-57.5 -128.5t-38.5 -131t-28.5 -160.5t-8 -181.5t8 -181.5
t28.5 -160.5t38.5 -131t57.5 -128.5t63.5 -116.5t77 -128z" />
    <glyph glyph-name="parenright" unicode=")" horiz-adv-x="569" 
d="M29 1489l116 72q51 -79 77.5 -122t72.5 -124t71.5 -146.5t53.5 -152t40.5 -180t12.5 -193.5q0 -86 -11.5 -170.5t-26.5 -151t-45 -142t-52 -124.5t-63 -120t-63.5 -106t-66.5 -103l-116 71q45 73 66.5 109.5t56.5 101.5t52 107t39.5 107.5t32.5 124.5t17.5 135.5
t7.5 160.5t-7.5 160.5t-17.5 135.5t-32.5 124.5t-39.5 107.5t-52 107t-56.5 101.5t-66.5 109.5z" />
    <glyph glyph-name="asterisk" unicode="*" 
d="M279 782l200 246l-305 84l47 137l295 -114l-20 323h147l-20 -323l295 114l47 -137l-306 -84l201 -246l-119 -80l-172 261l-172 -261z" />
    <glyph glyph-name="plus" unicode="+" horiz-adv-x="1228" 
d="M547 586v450h135v-450h448v-135h-448v-451h-135v451h-449v135h449z" />
    <glyph glyph-name="comma" unicode="," horiz-adv-x="569" 
d="M414 213l-170 -481h-158l127 481h201z" />
    <glyph glyph-name="hyphen" unicode="-" horiz-adv-x="681" 
d="M90 682h502v-152h-502v152z" />
    <glyph glyph-name="period" unicode="." horiz-adv-x="569" 
d="M184 213h201v-213h-201v213z" />
    <glyph glyph-name="slash" unicode="/" horiz-adv-x="757" 
d="M629 1552l119 -47l-619 -1599l-119 47z" />
    <glyph glyph-name="zero" unicode="0" 
d="M569 1346q-309 0 -309 -598q0 -87 5.5 -160.5t18 -147t35.5 -129.5t56 -100.5t82.5 -68t111.5 -23.5t111.5 23.5t83 68t56.5 100.5t35.5 129.5t18 147t5.5 160.5q0 99 -9 183.5t-31 162.5t-56.5 132.5t-89 87t-124.5 32.5zM569 1489q94 0 169.5 -25.5t126.5 -67
t89 -104.5t59 -126.5t34 -144.5t16.5 -147.5t3.5 -146.5q0 -45 -1 -79.5t-6 -96t-13.5 -109.5t-26.5 -110.5t-42 -109.5t-62.5 -96t-86.5 -80t-114.5 -51t-145.5 -20t-145.5 20t-114.5 51t-86 80t-62.5 96t-42 109.5t-26.5 110.5t-13.5 110t-5.5 95.5t-1 79.5q0 69 3 127.5
t11 129.5t24.5 129t41 117.5t62.5 104.5t87 81t117.5 54.5t150.5 18.5z" />
    <glyph glyph-name="one" unicode="1" 
d="M621 1458h182v-1458h-189v1262l-333 -267l-103 123z" />
    <glyph glyph-name="two" unicode="2" 
d="M84 0v141l424 441q58 60 86.5 90t69.5 76t60 72.5t43 64.5t33.5 67.5t17 65.5t7.5 74q0 108 -67.5 181t-200.5 73q-43 0 -84.5 -13t-82.5 -42t-70.5 -85t-38.5 -133l-187 29q36 182 153.5 284.5t301.5 102.5q209 0 337 -108t128 -285q0 -66 -17.5 -129t-41 -110
t-66.5 -102.5t-74.5 -89t-85.5 -87.5l-430 -437q9 0 28.5 1t28.5 1h670v-143h-942z" />
    <glyph glyph-name="three" unicode="3" 
d="M428 684v158q39 -2 84 -2q87 0 151.5 25.5t98.5 66.5t49.5 83t15.5 85q0 114 -73 180t-187 66q-39 0 -72.5 -6t-60 -19t-47 -25.5t-38 -33.5t-28.5 -35t-22.5 -38t-16 -34t-12.5 -31l-174 58q129 307 482 307q104 0 188.5 -31.5t137.5 -83.5t81.5 -117.5t28.5 -136.5
q0 -69 -20 -126.5t-49.5 -94t-69.5 -64.5t-72 -41.5t-64 -21.5v-4q29 -5 56 -12t74.5 -32.5t81 -62t59.5 -104t26 -154.5t-29 -162.5t-87 -135.5t-155 -95t-222 -35q-59 0 -111 8.5t-91 22t-73.5 36t-58 43t-45 51.5t-34 53t-25.5 56.5t-18.5 52.5t-14.5 50l184 45
q25 -148 100 -211t207 -63q52 0 101 16t91 48.5t67.5 89t25.5 130.5q0 66 -21 117.5t-53.5 82t-75.5 50.5t-81.5 27.5t-77.5 7.5q-30 0 -68.5 -2t-42.5 -2z" />
    <glyph glyph-name="four" unicode="4" 
d="M225 418h469v721q0 109 8 155h-8zM70 457l563 1001h233v-1040h203v-144h-203v-274h-172v274h-624v183z" />
    <glyph glyph-name="five" unicode="5" 
d="M985 1458v-143h-612l-8 -414q114 41 219 41q59 0 119 -17t119.5 -56t105 -95t74 -141.5t28.5 -188.5q0 -125 -56 -230.5t-168 -172t-259 -66.5q-156 0 -272.5 88.5t-157.5 270.5l168 45q4 -21 9 -39.5t17 -52t32 -60t48.5 -52.5t71.5 -41t96 -15q74 0 131 30t89 79.5
t47.5 105.5t15.5 115q0 96 -27 166t-75 109t-105 57t-127 18q-80 0 -164 -32.5t-147 -74.5l16 766h772z" />
    <glyph glyph-name="six" unicode="6" 
d="M633 1458h235l-233 -278q-182 -215 -244 -332l4 -2q37 15 54.5 22t68.5 17t105 10q184 0 306 -130.5t122 -318.5q0 -67 -16 -131t-53 -126.5t-91.5 -109.5t-138 -75.5t-185.5 -28.5q-124 0 -219 41.5t-150 111.5t-82.5 153.5t-27.5 175.5q0 158 79.5 329t272.5 422z
M276 438q0 -135 81.5 -227t213.5 -92q127 0 209 87t82 214q0 83 -24.5 147t-58 98t-77 55t-73 26.5t-54.5 5.5q-111 0 -247 -72q-18 -32 -36.5 -106t-15.5 -136z" />
    <glyph glyph-name="seven" unicode="7" 
d="M88 1458h926v-143l-627 -1315h-215l643 1315h-727v143z" />
    <glyph glyph-name="eight" unicode="8" 
d="M569 1489q175 0 299.5 -95.5t124.5 -254.5q4 -66 -38 -137.5t-106 -127t-140 -96.5q19 -13 56 -36t55 -35.5t49 -34t47 -37.5t38.5 -40t34 -47t23.5 -52.5t17 -64t5 -73.5q0 -74 -26 -140t-79.5 -121.5t-146 -88.5t-213.5 -33t-213.5 33t-146 88.5t-79.5 121.5t-26 140
q0 39 5 73.5t17 64t23.5 52.5t34 47t39 40t47 37.5t49.5 34t55.5 35.5t55.5 36q-76 41 -140 96.5t-106.5 127t-38.5 137.5q0 159 124.5 254.5t299.5 95.5zM569 1346q-104 0 -178 -55.5t-74 -157.5q0 -48 20.5 -90.5t58.5 -78t78.5 -62t94.5 -54.5q54 28 94.5 54.5t78.5 62
t58.5 78t20.5 90.5q0 102 -74 157.5t-178 55.5zM569 119q117 0 197 65.5t80 190.5q0 55 -24.5 105t-70.5 91t-86 68t-96 59q-56 -31 -96 -58.5t-85.5 -68.5t-70 -91t-24.5 -105q0 -125 79.5 -190.5t196.5 -65.5z" />
    <glyph glyph-name="nine" unicode="9" 
d="M500 0h-234l238 285q183 217 244 331l-5 2q-84 -35 -146 -44q-38 -5 -81 -5q-184 0 -306 130.5t-122 318.5q0 67 16 131t52.5 126.5t91 109.5t138 75.5t185.5 28.5q124 0 219.5 -41.5t150.5 -111.5t82.5 -153t27.5 -175q0 -158 -80 -329.5t-273 -422.5zM862 1026
q0 135 -81.5 227.5t-213.5 92.5q-127 0 -209 -87.5t-82 -214.5q0 -83 24.5 -147t58 -97.5t77 -54.5t73 -26.5t54.5 -5.5q114 0 248 71q18 32 36 105.5t15 136.5z" />
    <glyph glyph-name="colon" unicode=":" horiz-adv-x="569" 
d="M184 213h201v-213h-201v213zM184 1210h201v-213h-201v213z" />
    <glyph glyph-name="semicolon" unicode=";" horiz-adv-x="569" 
d="M414 213l-170 -481h-158l127 481h201zM184 1210h201v-213h-201v213z" />
    <glyph glyph-name="less" unicode="&#x3c;" horiz-adv-x="1228" 
d="M1135 123v-139l-1041 471v127l1041 471v-140l-871 -395z" />
    <glyph glyph-name="equal" unicode="=" horiz-adv-x="1228" 
d="M1130 791v-136h-1032v136h1032zM1130 381v-135h-1032v135h1032z" />
    <glyph glyph-name="greater" unicode="&#x3e;" horiz-adv-x="1228" 
d="M94 123l871 395l-871 395v140l1041 -471v-127l-1041 -471v139z" />
    <glyph glyph-name="question" unicode="?" horiz-adv-x="1062" 
d="M424 406v129q0 40 0.5 62t9.5 49.5t13.5 39t31 43.5t41.5 48t64 67q88 92 110 125q43 64 43 155q0 108 -60.5 165t-158.5 57q-34 0 -67.5 -9.5t-68.5 -30t-61.5 -60.5t-37.5 -95l-181 47q103 291 414 291q53 0 106 -10.5t107 -37t95.5 -66t67.5 -102t26 -140.5
q0 -76 -22 -135.5t-51.5 -96.5t-88.5 -96l-97 -96q-51 -51 -61 -79t-10 -95v-129h-164zM406 213h200v-213h-200v213z" />
    <glyph glyph-name="at" unicode="@" horiz-adv-x="1638" 
d="M715 408q84 0 159 74t115.5 174t40.5 186q0 74 -50 132t-116 58q-69 0 -131.5 -41.5t-104 -105.5t-65.5 -138t-24 -141q0 -87 49.5 -142.5t126.5 -55.5zM1094 1004l47 126h127l-176 -575q-21 -68 -21 -109q0 -59 45 -59q71 0 143 71t117 179.5t45 212.5q0 116 -46.5 214
t-124.5 163.5t-181 102t-217 36.5q-134 0 -252.5 -51.5t-202 -138.5t-132 -205t-48.5 -248q0 -129 50.5 -246.5t136 -201.5t202 -133.5t244.5 -49.5q160 0 303 62.5t219 173.5h135q-97 -167 -275.5 -263t-381.5 -96q-214 0 -389.5 98t-277 272.5t-101.5 389.5q0 208 103 383
t279.5 276t385.5 101q193 0 354.5 -79.5t256.5 -224.5t95 -325q0 -125 -48 -238.5t-119.5 -188t-152 -118t-149.5 -43.5q-68 0 -108.5 34.5t-46.5 99.5h-4q-36 -42 -62 -66t-74 -46t-104 -22q-135 0 -218 93t-83 227q0 104 35 206.5t95.5 184.5t151.5 133t195 51
q76 0 136 -40t94 -123z" />
    <glyph glyph-name="A" unicode="A" horiz-adv-x="1366" 
d="M399 541h566l-193 503q-18 47 -47 134t-39 116h-4q-16 -41 -45 -125t-45 -125zM571 1458h238l551 -1458h-203l-141 389h-670l-145 -389h-195z" />
    <glyph glyph-name="B" unicode="B" horiz-adv-x="1251" 
d="M152 0v1458h516q91 0 168 -22t138 -66.5t95.5 -117t34.5 -167.5q0 -111 -67.5 -200t-188.5 -117v-10q50 -8 97 -30.5t94 -63.5t75.5 -111.5t28.5 -161.5q0 -100 -39.5 -177t-107.5 -122.5t-152 -68.5t-180 -23h-512zM340 1307v-476h289q126 0 204 62t78 180
q0 122 -80 178t-215 56h-276zM340 680v-528h303q307 0 307 264q0 127 -81.5 195.5t-217.5 68.5h-311z" />
    <glyph glyph-name="C" unicode="C" horiz-adv-x="1327" 
d="M1073 408l187 -46q-123 -393 -539 -393q-138 0 -248 44t-181 117t-118.5 173t-67.5 205.5t-20 220.5q0 164 37 295.5t98 216.5t144.5 142.5t171.5 81.5t184 24q62 0 118 -9.5t98.5 -24t81 -39t64.5 -45t51.5 -53t39 -52.5t29.5 -52.5t21 -45t15 -38.5l-184 -47
q-12 46 -38 89t-66 81t-99.5 61t-130.5 23q-96 0 -172.5 -37t-124.5 -96.5t-79.5 -140.5t-44.5 -163.5t-13 -170.5q0 -53 3.5 -103t15.5 -113t31 -116t52.5 -105.5t77.5 -89t109.5 -59t144.5 -22.5q147 0 232.5 79t119.5 208z" />
    <glyph glyph-name="D" unicode="D" horiz-adv-x="1366" 
d="M340 1307v-1155h205q84 0 154.5 12.5t143.5 50.5t122.5 100t81.5 167.5t32 246.5q0 274 -130 426t-404 152h-205zM152 0v1458h446q159 0 289 -56t215.5 -154.5t131.5 -231.5t46 -287q0 -155 -43.5 -286t-128 -231t-220.5 -156t-310 -56h-426z" />
    <glyph glyph-name="E" unicode="E" 
d="M152 0v1458h876v-151h-688v-476h653v-151h-653v-528h709v-152h-897z" />
    <glyph glyph-name="F" unicode="F" 
d="M152 0v1458h876v-151h-688v-502h653v-152h-653v-653h-188z" />
    <glyph glyph-name="G" unicode="G" horiz-adv-x="1366" 
d="M1221 778v-672q-146 -73 -257 -105t-243 -32q-138 0 -248 44t-181 117t-118.5 173t-67.5 205.5t-20 220.5q0 164 37 295.5t98 216.5t144.5 142.5t171.5 81.5t184 24q62 0 118 -9.5t98.5 -24t81 -39t64.5 -45t51.5 -53t39 -52.5t29.5 -52.5t21 -45t15 -38.5l-184 -47
q-12 46 -38 89t-66 81t-99.5 61t-130.5 23q-96 0 -172.5 -37t-124.5 -96.5t-79.5 -140.5t-44.5 -163.5t-13 -170.5q0 -53 3.5 -103t15.5 -113t31 -116t52.5 -105.5t77.5 -89t109.5 -59t144.5 -22.5q184 0 311 76v430h-293v151h482z" />
    <glyph glyph-name="H" unicode="H" horiz-adv-x="1366" 
d="M152 1458h188v-606h686v606h188v-1458h-188v700h-686v-700h-188v1458z" />
    <glyph glyph-name="I" unicode="I" horiz-adv-x="495" 
d="M154 1458h188v-1458h-188v1458z" />
    <glyph glyph-name="J" unicode="J" horiz-adv-x="720" 
d="M381 1458h188v-1091q0 -58 -5.5 -106t-27 -105t-57 -95.5t-100.5 -65t-154 -26.5q-135 0 -219 64l80 147q19 -17 31 -25.5t42.5 -21t63.5 -12.5q158 0 158 231v1106z" />
    <glyph glyph-name="K" unicode="K" horiz-adv-x="1214" 
d="M152 0v1458h188v-649l592 649h242l-642 -692l682 -766h-256l-618 711v-711h-188z" />
    <glyph glyph-name="L" unicode="L" horiz-adv-x="985" 
d="M152 0v1458h188v-1306h629v-152h-817z" />
    <glyph glyph-name="M" unicode="M" horiz-adv-x="1781" 
d="M152 0v1458h315l356 -977q16 -42 39 -117l23 -75h8q1 2 23 76t38 116l367 977h309v-1458h-188v1141q0 91 6 166h-12q-5 -14 -29 -84.5t-37 -106.5l-412 -1116h-155l-393 1116q-31 83 -64 191h-12q6 -75 6 -166v-1141h-188z" />
    <glyph glyph-name="N" unicode="N" horiz-adv-x="1441" 
d="M160 0v1458h250l585 -1018q69 -117 99 -200h10q-10 123 -10 182v1036h188v-1458h-252l-584 1030q-65 111 -98 201h-10q10 -122 10 -182v-1049h-188z" />
    <glyph glyph-name="O" unicode="O" horiz-adv-x="1441" 
d="M721 121q79 0 144.5 22.5t109.5 59t77.5 89t52.5 105.5t31 116t15.5 113t3.5 103q0 75 -7.5 142.5t-25 138.5t-50 128t-78.5 103t-116 71t-157 25q-96 0 -172.5 -37t-124.5 -96.5t-79.5 -140.5t-44.5 -163.5t-13 -170.5q0 -53 3.5 -103t15.5 -113t31 -116t52.5 -105.5
t77.5 -89t109.5 -59t144.5 -22.5zM721 -31q-138 0 -248 44t-181 117t-118.5 173t-67.5 205.5t-20 220.5q0 164 37 295.5t98 216.5t144.5 142.5t171.5 81.5t184 24q81 0 155.5 -17t147 -52.5t132 -96t105 -142.5t70.5 -197.5t25 -254.5q0 -115 -20 -220.5t-67.5 -205.5
t-118.5 -173t-181 -117t-248 -44z" />
    <glyph glyph-name="P" unicode="P" horiz-adv-x="1214" 
d="M152 0v1458h462q44 0 84.5 -3t94 -13.5t98 -28t90 -50t77 -75.5t51 -107.5t19.5 -144.5q0 -77 -16.5 -140.5t-44 -108.5t-67 -79t-82.5 -55t-94 -34t-97 -18t-96 -5h-291v-596h-188zM340 1307v-559h291q144 0 226.5 69t82.5 209q0 65 -19.5 116t-50 81.5t-72.5 50
t-82.5 26.5t-84.5 7h-291z" />
    <glyph glyph-name="Q" unicode="Q" horiz-adv-x="1441" 
d="M721 121q79 0 144.5 22.5t109.5 59t77.5 89t52.5 105.5t31 116t15.5 113t3.5 103q0 75 -7.5 142.5t-25 138.5t-50 128t-78.5 103t-116 71t-157 25q-96 0 -172.5 -37t-124.5 -96.5t-79.5 -140.5t-44.5 -163.5t-13 -170.5q0 -53 3.5 -103t15.5 -113t31 -116t52.5 -105.5
t77.5 -89t109.5 -59t144.5 -22.5zM1331 -221l-117 -139l-438 333q-18 -4 -55 -4q-138 0 -248 44t-181 117t-118.5 173t-67.5 205.5t-20 220.5q0 164 37 295.5t98 216.5t144.5 142.5t171.5 81.5t184 24q81 0 155.5 -17t147 -52.5t132 -96t105 -142.5t70.5 -197.5t25 -254.5
q0 -111 -20 -214.5t-61.5 -199t-114 -171.5t-169.5 -119z" />
    <glyph glyph-name="R" unicode="R" horiz-adv-x="1214" 
d="M152 0v1458h501q198 0 322.5 -99.5t124.5 -291.5q0 -58 -11.5 -108t-28 -84.5t-42.5 -64.5t-47.5 -47t-52 -33t-46 -22t-38.5 -14l348 -694h-226l-301 659h-315v-659h-188zM340 1307v-496h297q76 0 132 21.5t85.5 58t43 76.5t13.5 86q0 254 -295 254h-276z" />
    <glyph glyph-name="S" unicode="S" 
d="M70 279l182 67q9 -33 23 -63t39 -60t57.5 -52t80 -36t103.5 -14q130 0 206.5 77t76.5 177q0 45 -11.5 82.5t-26.5 60t-40 42.5t-39 27.5t-37 18.5l-352 164q-217 100 -217 320q0 82 27.5 150.5t72.5 113.5t105 76t123 45t128 14q352 0 447 -266l-184 -62q-16 65 -61 106
t-94.5 55.5t-107.5 14.5q-129 0 -192.5 -64.5t-63.5 -170.5q0 -41 12 -75t28 -55.5t45.5 -42t50.5 -31t57 -26.5l262 -114q36 -16 63.5 -30.5t69 -47t68.5 -70.5t47 -98.5t20 -132.5q0 -47 -11.5 -96t-45 -107t-86.5 -102.5t-145 -74.5t-211 -30q-91 0 -168 22t-126.5 55
t-87.5 77t-57 81.5t-30 74.5z" />
    <glyph glyph-name="T" unicode="T" horiz-adv-x="1064" 
d="M438 0v1294h-424v164h1037v-164h-424v-1294h-189z" />
    <glyph glyph-name="U" unicode="U" horiz-adv-x="1368" 
d="M1217 1458v-885q0 -101 -17 -185.5t-46 -145.5t-70.5 -109t-88 -78.5t-100.5 -50t-105 -27.5t-106 -8q-78 0 -148.5 16t-142.5 58t-124 108t-84.5 174.5t-32.5 247.5v885h188v-934q0 -78 18 -146.5t56.5 -128t107.5 -94t162 -34.5t162 34.5t107.5 94t56.5 128t18 146.5
v934h189z" />
    <glyph glyph-name="V" unicode="V" horiz-adv-x="1251" 
d="M219 1458l352 -1100q26 -76 50 -178h10q26 111 49 178l364 1100h195l-498 -1458h-243l-486 1458h207z" />
    <glyph glyph-name="W" unicode="W" horiz-adv-x="1820" 
d="M207 1458l248 -1038q18 -78 41 -223h14q23 145 41 223l244 1038h235l252 -1038q18 -78 41 -223h14q23 145 41 223l250 1038h180l-360 -1458h-248l-246 1040q-17 71 -41 222h-14q-24 -151 -41 -222l-242 -1040h-239l-365 1458h195z" />
    <glyph glyph-name="X" unicode="X" horiz-adv-x="1290" 
d="M516 762l-442 696h225l256 -416q55 -92 96 -168q34 64 97 168l256 416h213l-445 -696l490 -762h-234l-326 537q-51 83 -61 104q-10 -21 -61 -104l-334 -537h-217z" />
    <glyph glyph-name="Y" unicode="Y" horiz-adv-x="1249" 
d="M530 0v596l-516 862h226l327 -571q23 -40 60 -123h4q34 77 61 123l330 571h213l-516 -862v-596h-189z" />
    <glyph glyph-name="Z" unicode="Z" horiz-adv-x="1062" 
d="M68 1458h931v-158l-745 -1148h762v-152h-969v172l748 1135h-727v151z" />
    <glyph glyph-name="bracketleft" unicode="[" horiz-adv-x="530" 
d="M123 -266v1818h344v-110h-180v-1598h180v-110h-344z" />
    <glyph glyph-name="backslash" unicode="\" horiz-adv-x="757" 
d="M10 1505l119 47l619 -1599l-119 -47z" />
    <glyph glyph-name="bracketright" unicode="]" horiz-adv-x="530" 
d="M408 1552v-1818h-345v110h181v1598h-181v110h345z" />
    <glyph glyph-name="asciicircum" unicode="^" horiz-adv-x="1228" 
d="M102 571l445 887h135l444 -887h-145l-367 736l-366 -736h-146z" />
    <glyph glyph-name="underscore" unicode="_" horiz-adv-x="1024" 
d="M1024 -256h-1024v102h1024v-102z" />
    <glyph glyph-name="grave" unicode="`" horiz-adv-x="495" 
d="M-23 1653h222l213 -293h-144z" />
    <glyph glyph-name="a" unicode="a" horiz-adv-x="1099" 
d="M285 885l-156 47q19 50 38.5 88t55 81t79.5 70t112 45.5t153 18.5q103 0 179 -28t119 -70.5t68 -106.5t32.5 -121.5t7.5 -130.5v-637q0 -73 10 -141h-190v205h-5q-87 -114 -178 -165.5t-200 -51.5q-72 0 -130.5 20.5t-96.5 54t-63.5 79t-36.5 92.5t-11 96q0 203 145 309
t401 106h175v78q0 22 -0.5 36t-3 41.5t-9 46.5t-17 44.5t-28.5 43t-41.5 33.5t-58.5 24t-78 8q-106 0 -167.5 -54t-104.5 -161zM793 610h-131q-198 0 -304 -65t-106 -199q0 -93 49 -154t154 -61q71 0 148.5 40.5t189.5 166.5v272z" />
    <glyph glyph-name="b" unicode="b" horiz-adv-x="1175" 
d="M324 903v-594q31 -66 108 -124t182 -58q72 0 127 33.5t86 83.5t50.5 119.5t25.5 131t6 128.5q0 39 -2.5 76t-10.5 84t-20.5 87.5t-35 81t-52.5 68.5t-74 45.5t-98 17.5q-82 0 -159.5 -52t-132.5 -128zM143 0v1591h181v-538q92 103 173.5 142.5t178.5 39.5q60 0 116 -17.5
t112.5 -62.5t98.5 -113.5t68.5 -179.5t26.5 -252q0 -299 -117 -467t-322 -168q-66 0 -123.5 18.5t-97.5 49t-66 58.5t-44 57h-4v-158h-181z" />
    <glyph glyph-name="c" unicode="c" horiz-adv-x="1062" 
d="M1004 918l-162 -50q-64 224 -236 224q-74 0 -131.5 -28.5t-92.5 -74.5t-57.5 -110.5t-31 -130t-8.5 -140.5q0 -98 14 -180.5t46 -154.5t90.5 -113t139.5 -41q200 0 277 221l158 -51q-25 -57 -48 -98.5t-60 -85t-80.5 -70t-106.5 -43.5t-140 -17q-83 0 -152 21
t-117.5 56.5t-86 86t-60.5 105.5t-37.5 119.5t-20 122.5t-5.5 120q0 57 5.5 112t20.5 119t39 119.5t64 107.5t91.5 89t126 59.5t163.5 22.5q142 0 239.5 -74t158.5 -243z" />
    <glyph glyph-name="d" unicode="d" horiz-adv-x="1175" 
d="M852 309v594q-55 76 -133 128t-160 52q-54 0 -98 -17.5t-74 -45.5t-52.5 -68.5t-35 -81t-20.5 -87.5t-10.5 -84t-2.5 -76q0 -67 6 -128.5t25.5 -131t50.5 -119.5t86 -83.5t127 -33.5q105 0 182.5 58t108.5 124zM1032 1591v-1591h-180v158h-4q-18 -29 -44 -57t-66.5 -58.5
t-98 -49t-123.5 -18.5q-205 0 -321.5 167.5t-116.5 467.5q0 141 26.5 252t68.5 179.5t98.5 113.5t112.5 62.5t116 17.5q97 0 178.5 -39.5t173.5 -142.5v538h180z" />
    <glyph glyph-name="e" unicode="e" 
d="M266 694h606q0 111 -31.5 199.5t-98.5 143.5t-160 55q-138 0 -217.5 -104t-98.5 -294zM1061 559h-795q6 -228 96.5 -334t225.5 -106q56 0 104 16t78.5 39.5t54.5 54t36 55.5t18 48l157 -56q-60 -143 -173 -222t-275 -79q-89 0 -163.5 22.5t-126 59.5t-91.5 89.5
t-64 107.5t-39 119.5t-20.5 120t-5.5 112.5t5.5 112t20.5 119t39 119.5t64 107.5t91.5 89t126 59.5t163.5 22.5q101 0 182.5 -34t134.5 -90t89 -133t51.5 -158.5t15.5 -170.5v-90z" />
    <glyph glyph-name="f" unicode="f" horiz-adv-x="645" 
d="M209 0v979h-170v135h170v107q0 67 7.5 121t29 107t57 88t94.5 57t138 22q53 0 133 -23v-143q-71 23 -119 23q-44 0 -75 -13.5t-47 -33t-25 -53.5t-11 -62t-2 -72v-125h219v-135h-219v-979h-180z" />
    <glyph glyph-name="g" unicode="g" horiz-adv-x="1099" 
d="M1087 1210v-123h-217q53 -52 76 -106.5t23 -136.5q0 -54 -14 -105.5t-48 -101.5t-85 -87t-131 -60t-179 -23q-56 0 -94 10q-34 -29 -47 -47.5t-13 -44.5q0 -34 28 -51t130 -41l197 -45q62 -14 106 -28t92 -39t77.5 -57t49 -81.5t19.5 -112.5q0 -92 -46.5 -161.5
t-124.5 -108t-167 -56.5t-187 -18q-99 0 -184.5 17t-155.5 51.5t-110.5 94.5t-40.5 140q0 58 17 105.5t51 86t70.5 67t90.5 61.5q-22 11 -36 20t-31 36.5t-17 64.5q0 32 9 57.5t29.5 48t36 36t46.5 36.5q-34 13 -69.5 37t-74 64t-63 102.5t-24.5 136.5q0 166 114.5 276.5
t325.5 110.5q106 0 201 -25h370zM248 858q0 -128 77 -198t197 -70t197.5 70t77.5 198q0 122 -76 188t-199 66t-198.5 -66t-75.5 -188zM682 88l-289 68q-86 -56 -133 -114t-47 -130q0 -54 33.5 -93.5t88.5 -59.5t111.5 -29t116.5 -9q148 0 231 55.5t83 141.5
q0 64 -39.5 103.5t-155.5 66.5z" />
    <glyph glyph-name="h" unicode="h" horiz-adv-x="1175" 
d="M143 0v1591h181v-577q5 4 37.5 33.5t43 39t42.5 35.5t50 36.5t50.5 29t58.5 26.5t59.5 14.5t67.5 6.5q143 0 221.5 -87t77.5 -255v-893h-180v827q0 40 -4 73t-15.5 66t-31 55t-52 36t-75.5 14q-59 0 -112.5 -18.5t-100 -55.5t-73 -64t-64.5 -71v-862h-181z" />
    <glyph glyph-name="i" unicode="i" horiz-adv-x="495" 
d="M158 0v1210h180v-1210h-180zM147 1411v180h201v-180h-201z" />
    <glyph glyph-name="j" unicode="j" horiz-adv-x="495" 
d="M338 1210v-1300q0 -47 -4 -83.5t-22 -84.5t-48.5 -79.5t-88.5 -54t-138 -22.5q-48 0 -92 13l8 153q44 -14 76 -14q129 0 129 172v1300h180zM147 1411v180h201v-180h-201z" />
    <glyph glyph-name="k" unicode="k" horiz-adv-x="1062" 
d="M143 1591h181v-919l467 538h229l-502 -559l537 -651h-234l-493 623h-4v-623h-181v1591z" />
    <glyph glyph-name="l" unicode="l" horiz-adv-x="495" 
d="M158 0v1591h180v-1591h-180z" />
    <glyph glyph-name="m" unicode="m" horiz-adv-x="1818" 
d="M143 0v1210h181v-194q111 127 200.5 173t180.5 46q42 0 78 -7.5t61 -18t47 -29.5t34.5 -33t25.5 -38.5t18 -36t14 -34.5q47 45 77 70t82 59.5t110 51t124 16.5q71 0 126 -21.5t87 -55t52 -80.5t27 -91.5t7 -93.5v-893h-180v825q0 22 -0.5 37.5t-4 43.5t-10 47.5t-20 43.5
t-32.5 39t-48.5 25t-66.5 10q-77 0 -143.5 -32.5t-170.5 -133.5v-905h-180v825q0 38 -1.5 61.5t-11.5 62.5t-28 62.5t-55 41.5t-90 18q-73 0 -140.5 -45.5t-168.5 -157.5v-868h-181z" />
    <glyph glyph-name="n" unicode="n" horiz-adv-x="1175" 
d="M143 0v1210h181v-196q5 4 37.5 33.5t43 39t42.5 35.5t50 36.5t50.5 29t58.5 26.5t59.5 14.5t67.5 6.5q143 0 221.5 -87t77.5 -255v-893h-180v827q0 40 -4 73t-15.5 66t-31 55t-52 36t-75.5 14q-59 0 -112.5 -18.5t-100 -55.5t-73 -64t-64.5 -71v-862h-181z" />
    <glyph glyph-name="o" unicode="o" horiz-adv-x="1175" 
d="M588 -25q-89 0 -163.5 22.5t-126 59.5t-91.5 89.5t-64 107.5t-39 119.5t-20.5 120t-5.5 112.5q0 96 17 185t56 170.5t97 141.5t145 96t195 36q89 0 163.5 -22.5t126 -59.5t91.5 -89t64 -107.5t39 -119.5t20.5 -119t5.5 -112q0 -97 -17 -186t-56 -171t-97 -142t-145 -96
t-195 -36zM588 1092q-74 0 -131.5 -28.5t-92.5 -74.5t-58 -110.5t-31.5 -130t-8.5 -140.5q0 -76 8.5 -142.5t31 -132t58 -111.5t93 -74.5t131.5 -28.5t131.5 28.5t92.5 74.5t57.5 111.5t31 132t8.5 142.5q0 75 -8.5 140.5t-31 130t-57.5 110.5t-92.5 74.5t-131.5 28.5z" />
    <glyph glyph-name="p" unicode="p" horiz-adv-x="1175" 
d="M324 901v-594q55 -76 132.5 -128t159.5 -52q54 0 98 17.5t74 46t52.5 68.5t35 80.5t20.5 88t10.5 84.5t2.5 76q0 55 -4.5 106t-15.5 110t-33 106.5t-53 87.5t-79.5 62.5t-109.5 22.5q-105 0 -182 -58t-108 -124zM143 -381v1591h181v-157h4q18 29 44 57t66 58t97.5 48.5
t123.5 18.5q205 0 322 -168t117 -467q0 -141 -26.5 -252t-68.5 -179.5t-98.5 -113.5t-112.5 -62.5t-116 -17.5q-97 0 -178.5 39.5t-173.5 143.5v-539h-181z" />
    <glyph glyph-name="q" unicode="q" horiz-adv-x="1175" 
d="M852 307v594q-31 66 -108.5 124t-182.5 58q-61 0 -109.5 -22.5t-79.5 -62.5t-53 -87.5t-33 -106.5t-15.5 -110t-4.5 -106q0 -39 2.5 -76t10.5 -84.5t20.5 -88t35 -80.5t52.5 -68.5t74 -46t98 -17.5q82 0 160 52t133 128zM1032 1210v-1591h-180v539
q-92 -104 -173.5 -143.5t-178.5 -39.5q-60 0 -116 17.5t-112.5 62.5t-98.5 113.5t-68.5 179.5t-26.5 252q0 300 116.5 467.5t321.5 167.5q66 0 123.5 -18.5t98 -48.5t66.5 -58t44 -57h4v157h180z" />
    <glyph glyph-name="r" unicode="r" horiz-adv-x="757" 
d="M143 0v1210h181v-215h4q80 110 182.5 169t216.5 59v-181q-39 0 -63 -1t-73 -11.5t-87 -30.5t-87.5 -60.5t-92.5 -98.5v-840h-181z" />
    <glyph glyph-name="s" unicode="s" horiz-adv-x="985" 
d="M49 281l160 51q36 -103 101 -158t173 -55q68 0 119.5 20t78.5 52t39.5 65t12.5 66q0 45 -15.5 78.5t-50.5 58t-75 41.5t-103 37l-90 28q-68 21 -118.5 46t-96.5 63.5t-70 95t-24 129.5q0 88 38.5 155.5t100.5 105.5t130.5 56.5t138.5 18.5q57 0 106 -11t83.5 -25.5
t65.5 -41t49 -46.5t36.5 -53.5t26 -50t20.5 -46.5l-158 -56q-24 92 -88 139.5t-147 47.5q-94 0 -158 -47t-64 -136q0 -68 37.5 -106t138.5 -74l166 -57q158 -55 229.5 -131.5t71.5 -210.5q0 -44 -11.5 -89t-42.5 -94t-78 -86t-125 -61.5t-177 -24.5q-158 0 -275.5 79
t-154.5 227z" />
    <glyph glyph-name="t" unicode="t" horiz-adv-x="720" 
d="M229 1114v299l181 76v-375h284v-135h-284v-668q0 -35 2 -59t10 -51.5t23 -43.5t42 -27t66 -11q41 0 71 7.5t81 27.5v-144q-88 -35 -170 -35q-75 0 -131.5 20t-89 51t-52.5 74.5t-26.5 83.5t-6.5 85v690h-182v135h182z" />
    <glyph glyph-name="u" unicode="u" horiz-adv-x="1175" 
d="M1032 1210v-1210h-180v197q-5 -5 -37.5 -34t-43 -38.5t-43 -35.5t-50.5 -37t-50.5 -29.5t-58.5 -26t-60 -14.5t-67 -7q-143 0 -221.5 87t-77.5 255v893h181v-827q0 -40 4 -73t15.5 -66t31 -55t52 -36t75.5 -14q59 0 112.5 18.5t100 55.5t73 64t64.5 71v862h180z" />
    <glyph glyph-name="v" unicode="v" horiz-adv-x="1024" 
d="M4 1210h201l211 -692q38 -121 96 -338h10q68 254 96 338l222 692h180l-395 -1210h-224z" />
    <glyph glyph-name="w" unicode="w" horiz-adv-x="1669" 
d="M209 1210l197 -737q39 -151 63 -293h12q22 131 64 293l180 737h223l195 -737q39 -151 63 -293h13q24 142 63 293l193 737h180l-326 -1210h-233l-219 840q-25 99 -33 170h-13q-8 -77 -32 -170l-209 -840h-234l-342 1210h195z" />
    <glyph glyph-name="x" unicode="x" horiz-adv-x="1062" 
d="M412 641l-355 569h211l213 -358q38 -62 60 -111h4q25 56 59 111l223 358h197l-365 -565l396 -645h-215l-265 453q-24 43 -34 73h-4q-16 -37 -39 -73l-285 -453h-205z" />
    <glyph glyph-name="y" unicode="y" horiz-adv-x="1024" 
d="M-6 1210h201l243 -712q53 -157 82 -295h4q29 138 82 295l238 712h186l-473 -1362q-46 -131 -116.5 -196.5t-178.5 -65.5q-67 0 -137 21l10 157q35 -14 92 -14q40 0 66.5 16.5t59 72t73.5 165.5z" />
    <glyph glyph-name="z" unicode="z" horiz-adv-x="985" 
d="M74 1210h850v-139l-662 -928h676v-143h-891v137l668 930h-641v143z" />
    <glyph glyph-name="braceleft" unicode="{" horiz-adv-x="681" 
d="M125 586v114q68 1 108.5 83t40.5 202v305q0 120 58 191t143 71h143v-110h-90q-46 0 -68 -56.5t-22 -138.5v-299q0 -59 -13.5 -110t-33 -83.5t-43.5 -57.5t-42 -36.5t-32 -15.5v-4q14 -4 32 -15.5t42 -36.5t43.5 -57.5t33 -83.5t13.5 -110v-299q0 -82 22 -138.5t68 -56.5
h90v-110h-143q-85 0 -143 71t-58 191v305q0 120 -40.5 202t-108.5 83z" />
    <glyph glyph-name="bar" unicode="|" horiz-adv-x="454" 
d="M160 -512v2048h135v-2048h-135z" />
    <glyph glyph-name="braceright" unicode="}" horiz-adv-x="681" 
d="M557 700v-114q-68 -1 -108.5 -83t-40.5 -202v-305q0 -120 -58 -191t-143 -71h-144v110h91q46 0 68 56.5t22 138.5v299q0 59 13.5 110t33 83.5t43.5 57.5t42 36.5t32 15.5v4q-14 4 -32 15.5t-42 36.5t-43.5 57.5t-33 83.5t-13.5 110v299q0 82 -22 138.5t-68 56.5h-91v110
h144q85 0 143 -71t58 -191v-305q0 -120 40.5 -202t108.5 -83z" />
    <glyph glyph-name="asciitilde" unicode="~" horiz-adv-x="1228" 
d="M1014 662l73 -103q-23 -32 -38.5 -52t-41 -46.5t-49.5 -41t-57 -25.5t-70 -11q-52 0 -99 17t-109 51q-130 69 -236 69q-104 0 -172 -145l-74 102q93 178 256 178q87 0 228 -67q14 -6 44.5 -20t47.5 -21t40.5 -16t42 -13t34.5 -4q29 0 55 11.5t49.5 36.5t38 45t37.5 55z
" />
    <glyph glyph-name="uni00A0" unicode="&#xa0;" horiz-adv-x="569" 
 />
    <glyph glyph-name="exclamdown" unicode="&#xa1;" horiz-adv-x="647" 
d="M395 805l29 -1053h-201l29 1053h143zM424 997h-201v213h201v-213z" />
    <glyph glyph-name="cent" unicode="&#xa2;" 
d="M414 209l282 872q-33 11 -61 11q-74 0 -131.5 -28.5t-92.5 -74.5t-58 -110.5t-31.5 -130t-8.5 -140.5q0 -279 101 -399zM881 340l157 -51q-25 -58 -48 -99t-60 -84.5t-80 -70t-106 -43.5t-140 -17q-95 0 -168 25l-43 -129l-80 25l45 141q-67 42 -115 108.5t-72.5 146
t-35 155.5t-10.5 159q0 57 5.5 112t20.5 119t39 119.5t64 107.5t91.5 89t126 59.5t163.5 22.5q57 0 106 -12l41 131l80 -23l-43 -137q139 -68 213 -276l-162 -50q-38 124 -100 174l-287 -892q54 -31 121 -31q200 0 277 221z" />
    <glyph glyph-name="sterling" unicode="&#xa3;" 
d="M88 0v143h170v539h-154v135h154v207q0 70 10 131t38 124.5t72.5 108t120.5 73t175 28.5q83 0 147.5 -18t101 -41t65.5 -63t40 -65t25 -67l-174 -53q-12 31 -18.5 45.5t-24 40t-37 37.5t-53 22t-76.5 10q-58 0 -100.5 -21t-65.5 -52.5t-36.5 -80t-17.5 -91t-4 -97.5v-178
h330v-135h-330v-539h553v-143h-911z" />
    <glyph glyph-name="currency" unicode="&#xa4;" 
d="M55 309l113 117q-107 131 -107 305q0 195 111 309l-117 117l90 90l115 -114q126 108 315 108q178 0 302 -106l114 114l92 -92l-110 -113q104 -118 104 -309q0 -184 -104 -311l110 -115l-88 -88l-110 119q-127 -115 -312 -115q-189 0 -319 113l-111 -117zM197 731
q0 -158 110.5 -270.5t265.5 -112.5q154 0 261.5 115t107.5 272q0 154 -108 268.5t-259 114.5q-158 0 -268 -113.5t-110 -273.5z" />
    <glyph glyph-name="yen" unicode="&#xa5;" 
d="M475 0v303h-299v113h299v174l-14 26h-285v113h227l-376 729h209l247 -508q43 -89 86 -198q43 109 86 198l254 508h203l-377 -729h228v-113h-285l-14 -26v-174h299v-113h-299v-303h-189z" />
    <glyph glyph-name="brokenbar" unicode="&#xa6;" horiz-adv-x="454" 
d="M160 -358v716h135v-716h-135zM160 666v716h135v-716h-135z" />
    <glyph glyph-name="section" unicode="&#xa7;" 
d="M975 1249l-152 -80q-13 30 -20 45t-22 41t-30.5 40t-39 29.5t-54.5 22.5t-69 7q-92 0 -151.5 -45t-59.5 -127q0 -50 25.5 -91t51.5 -59.5t54 -30.5l258 -114q39 -17 73.5 -40.5t73 -60t61.5 -89t23 -113.5q0 -24 -1.5 -41t-11.5 -49t-28 -56.5t-55.5 -54.5t-89.5 -53
q32 -18 49 -29t43.5 -35t40 -49t24.5 -66t11 -92q0 -41 -11.5 -83.5t-42 -88.5t-76 -81t-120.5 -57.5t-170 -22.5q-85 0 -159 27.5t-124.5 72.5t-84 93t-50.5 97l156 74q24 -90 95 -159.5t179 -69.5q43 0 80.5 8.5t72 27.5t55 56t20.5 88q0 41 -13 72.5t-39.5 53.5t-50 35
t-61.5 29l-229 101q-97 44 -134 71q-105 80 -106 222q0 35 9 67t20.5 54.5t34 45.5t37.5 35.5t43 28.5t39 21.5t36 17.5q-30 16 -48.5 27.5t-48 36t-47 50t-31 66t-13.5 86.5q0 35 9 73t36.5 85t69.5 83.5t116.5 61.5t169.5 25q267 0 377 -240zM680 741l-180 88
q-75 -25 -118.5 -72t-43.5 -114q0 -57 39.5 -96.5t114.5 -71.5l202 -90q34 21 50.5 32.5t39 33.5t32 49.5t9.5 64.5q0 105 -145 176z" />
    <glyph glyph-name="dieresis" unicode="&#xa8;" horiz-adv-x="495" 
d="M-53 1411v180h200v-180h-200zM348 1411v180h201v-180h-201z" />
    <glyph glyph-name="copyright" unicode="&#xa9;" horiz-adv-x="1638" 
d="M1087 575h127q-31 -145 -131 -231t-237 -86q-198 0 -320.5 131.5t-122.5 329.5q0 202 118.5 330.5t318.5 128.5q145 0 248 -81.5t124 -226.5h-125q-18 83 -83 134t-162 51q-143 0 -223 -93t-80 -239q0 -143 84.5 -242.5t222.5 -99.5q97 0 162 53.5t79 140.5zM59 729
q0 155 60 295.5t162 242.5t242.5 162t295.5 60t295.5 -60t242.5 -162t162 -242.5t60 -295.5t-60 -295.5t-162 -242.5t-242.5 -162t-295.5 -60t-295.5 60t-242.5 162t-162 242.5t-60 295.5zM195 729q0 -176 81 -322t224.5 -230.5t318.5 -84.5t318.5 84.5t225 230.5t81.5 322
t-81.5 322t-225 230.5t-318.5 84.5t-318.5 -84.5t-224.5 -230.5t-81 -322z" />
    <glyph glyph-name="ordfeminine" unicode="&#xaa;" horiz-adv-x="714" 
d="M184 1278l-100 29q16 39 34 66.5t50 56.5t82.5 44t118.5 15q67 0 116.5 -17t77.5 -42.5t44 -64t21 -73.5t5 -78v-374q0 -43 6 -92h-123v116h-4q-108 -131 -246 -131q-58 0 -102 18.5t-68.5 49.5t-36.5 66t-12 73q0 126 93.5 190t260.5 64h115v47q0 22 -1 36.5t-9 41
t-23 42.5t-46 29t-75 13q-70 0 -110 -30.5t-68 -94.5zM516 1108h-86q-266 0 -266 -160q0 -55 32 -92t99 -37q46 0 97 24.5t124 100.5v164z" />
    <glyph glyph-name="guillemotleft" unicode="&#xab;" horiz-adv-x="985" 
d="M385 145l-315 461l315 461l115 -74l-250 -387l250 -387zM801 145l-316 461l316 461l114 -74l-249 -387l249 -387z" />
    <glyph glyph-name="logicalnot" unicode="&#xac;" horiz-adv-x="1228" 
d="M995 221v434h-897v136h1032v-570h-135z" />
    <glyph glyph-name="uni00AD" unicode="&#xad;" horiz-adv-x="681" 
d="M90 682h502v-152h-502v152z" />
    <glyph glyph-name="registered" unicode="&#xae;" horiz-adv-x="1638" 
d="M659 666v-381h-122v864h329q299 0 299 -244q0 -110 -61 -167t-162 -68l246 -385h-135l-234 381h-160zM659 766h154q43 0 70.5 2t60.5 10t52.5 23t32.5 42.5t13 67.5q0 138 -196 138h-187v-283zM59 729q0 155 60 295.5t162 242.5t242.5 162t295.5 60t295.5 -60t242.5 -162
t162 -242.5t60 -295.5t-60 -295.5t-162 -242.5t-242.5 -162t-295.5 -60t-295.5 60t-242.5 162t-162 242.5t-60 295.5zM195 729q0 -176 81 -322t224.5 -230.5t318.5 -84.5t318.5 84.5t225 230.5t81.5 322t-81.5 322t-225 230.5t-318.5 84.5t-318.5 -84.5t-224.5 -230.5
t-81 -322z" />
    <glyph glyph-name="macron" unicode="&#xaf;" horiz-adv-x="495" 
d="M-39 1554h574v-122h-574v122z" />
    <glyph glyph-name="degree" unicode="&#xb0;" horiz-adv-x="819" 
d="M117 1196q0 122 85.5 207.5t207.5 85.5q121 0 206.5 -85.5t85.5 -207.5t-85.5 -207.5t-206.5 -85.5q-122 0 -207.5 85.5t-85.5 207.5zM215 1196q0 -80 57.5 -137.5t137.5 -57.5q79 0 136.5 57.5t57.5 137.5t-57.5 137.5t-136.5 57.5q-80 0 -137.5 -57.5t-57.5 -137.5z
" />
    <glyph glyph-name="plusminus" unicode="&#xb1;" horiz-adv-x="1228" 
d="M547 692v344h135v-344h448v-135h-448v-346h-135v346h-449v135h449zM98 0v135h1032v-135h-1032z" />
    <glyph glyph-name="twosuperior" unicode="&#xb2;" horiz-adv-x="681" 
d="M20 596v84l279 266q55 53 76.5 74t54.5 58t44.5 58.5t21.5 52t10 62.5q0 65 -43.5 108.5t-130.5 43.5q-63 0 -116 -38.5t-64 -125.5l-121 18q24 108 100 170t195 62q136 0 219.5 -64.5t83.5 -169.5q0 -40 -12 -78.5t-26.5 -66t-44.5 -62.5t-48.5 -53t-55.5 -53l-278 -262
q6 0 18.5 1t18.5 1h436v-86h-617z" />
    <glyph glyph-name="threesuperior" unicode="&#xb3;" horiz-adv-x="681" 
d="M242 1012v92q25 -2 55 -2q106 0 155.5 48.5t49.5 104.5q0 69 -48 108.5t-122 39.5q-40 0 -72 -10t-50.5 -23t-34.5 -34.5t-22 -34t-14 -31.5l-112 35q84 184 311 184q134 0 210.5 -65t76.5 -156q0 -41 -13.5 -75t-33 -55.5t-45.5 -38.5t-47 -25t-42 -13v-4q17 -2 36 -6.5
t49 -19t52.5 -37t39 -63t16.5 -93.5q0 -110 -81.5 -183t-240.5 -73q-57 0 -102.5 10t-76.5 30t-52.5 39.5t-36.5 49.5t-22 47.5t-15 46.5l119 26q17 -88 66 -125.5t135 -37.5q74 0 129 43t55 129q0 50 -20 86.5t-52.5 55t-64.5 26.5t-64 8q-19 0 -44 -2t-27 -2z" />
    <glyph glyph-name="acute" unicode="&#xb4;" horiz-adv-x="495" 
d="M84 1360l213 293h221l-291 -293h-143z" />
    <glyph glyph-name="mu" unicode="&#xb5;" horiz-adv-x="1175" 
d="M143 -385v1595h181v-825q0 -66 18 -115.5t43 -76t61 -42.5t64 -20t59 -4q47 0 90 17t72 41t55 57.5t40 59.5t26 54v854h180v-1210h-180v174h-4q-50 -97 -116 -148t-159 -51q-102 0 -157 34.5t-88 90.5h-4v-485h-181z" />
    <glyph glyph-name="paragraph" unicode="&#xb6;" horiz-adv-x="1228" 
d="M528 -244v928q-187 0 -308.5 109.5t-121.5 271.5q0 195 123 294t344 99h488v-1702h-135v1579h-254v-1579h-136z" />
    <glyph glyph-name="periodcentered" unicode="&#xb7;" horiz-adv-x="569" 
d="M147 639q0 57 40.5 97t97.5 40t97 -40t40 -97t-40 -97t-97 -40t-97.5 40t-40.5 97z" />
    <glyph glyph-name="cedilla" unicode="&#xb8;" horiz-adv-x="495" 
d="M229 0h86l-90 -123q47 6 74 6q86 0 126 -44.5t40 -98.5q0 -17 -4.5 -37t-19 -46.5t-38.5 -47t-68 -35t-102 -14.5q-43 0 -79.5 6.5t-56.5 13.5t-74 27l30 74q82 -37 160 -37q47 0 82 20.5t35 65.5q0 35 -30.5 57.5t-72.5 22.5q-41 0 -86 -19l-37 39z" />
    <glyph glyph-name="onesuperior" unicode="&#xb9;" horiz-adv-x="681" 
d="M338 596v762l-217 -160l-66 74l287 203h119v-879h-123z" />
    <glyph glyph-name="ordmasculine" unicode="&#xba;" horiz-adv-x="737" 
d="M369 733q-80 0 -142 26t-97 64.5t-57 92t-29 100t-7 96.5q0 49 7 95.5t29 99.5t57 91.5t97 64.5t142 26t141.5 -26t96.5 -64.5t57 -91.5t29 -99.5t7 -95.5q0 -50 -7 -96.5t-29 -100t-57 -92t-96.5 -64.5t-141.5 -26zM369 1403q-60 0 -103 -25t-65 -68.5t-31.5 -91.5
t-9.5 -106t9.5 -106t31.5 -92.5t65 -69.5t103 -25q48 0 85.5 17t60 45t37.5 67t20.5 79t5.5 85q0 57 -10 105.5t-32 92t-64.5 68.5t-102.5 25z" />
    <glyph glyph-name="guillemotright" unicode="&#xbb;" horiz-adv-x="985" 
d="M485 219l250 387l-250 387l115 74l315 -461l-315 -461zM70 219l249 387l-249 387l114 74l316 -461l-316 -461z" />
    <glyph glyph-name="onequarter" unicode="&#xbc;" horiz-adv-x="1708" 
d="M1055 254h303v434q0 56 6 92h-6zM952 279l367 600h151v-625h132v-86h-132v-168h-112v168h-406v111zM1130 1513h123l-802 -1562h-123zM338 596v762l-217 -160l-66 74l287 203h119v-879h-123z" />
    <glyph glyph-name="onehalf" unicode="&#xbd;" horiz-adv-x="1708" 
d="M1067 1513h123l-803 -1562h-123zM338 596v762l-217 -160l-66 74l287 203h119v-879h-123zM936 0v84l278 266q55 53 76.5 74t54.5 58t44.5 58.5t21.5 52t10 62.5q0 65 -43.5 108.5t-130.5 43.5q-63 0 -116 -38.5t-64 -125.5l-121 19q24 108 100 169.5t195 61.5
q136 0 219.5 -64.5t83.5 -169.5q0 -40 -11.5 -78.5t-26.5 -66t-44 -62t-48 -53.5t-56 -53l-279 -262q6 0 18.5 1t18.5 1h436v-86h-616z" />
    <glyph glyph-name="threequarters" unicode="&#xbe;" horiz-adv-x="1708" 
d="M1055 254h303v434q0 56 6 92h-6zM952 279l367 600h151v-625h132v-86h-132v-168h-112v168h-406v111zM1192 1513h123l-803 -1562h-123zM279 1012v92q25 -2 55 -2q106 0 155.5 48.5t49.5 104.5q0 69 -48 108.5t-122 39.5q-40 0 -72 -10t-50.5 -23t-34.5 -34.5t-22 -34
t-14 -31.5l-113 35q84 184 312 184q134 0 210.5 -65t76.5 -156q0 -41 -13.5 -75t-33 -55.5t-45.5 -38.5t-47 -25t-42 -13v-4q17 -2 36 -6.5t49 -19t52.5 -37t39 -63t16.5 -93.5q0 -110 -81.5 -183t-240.5 -73q-57 0 -102.5 10t-76.5 30t-52.5 39.5t-36.5 49.5t-22 47.5
t-15 46.5l119 26q17 -88 66 -125.5t135 -37.5q74 0 129 43t55 129q0 50 -20 86.5t-52.5 55t-64.5 26.5t-64 8q-19 0 -44 -2t-27 -2z" />
    <glyph glyph-name="questiondown" unicode="&#xbf;" horiz-adv-x="1062" 
d="M639 805v-129q0 -40 -0.5 -62t-9.5 -49.5t-13.5 -39t-31 -43.5t-41.5 -48t-64 -67l-42.5 -45t-33 -36.5t-30 -37.5t-19.5 -33t-17 -39t-7 -39.5t-4 -50.5q0 -108 60.5 -164.5t158.5 -56.5q47 0 91 15t87 61t57 118l181 -47q-103 -291 -414 -291q-53 0 -106 11t-107 37.5
t-95.5 66t-67.5 102t-26 140.5q0 76 22 135.5t51.5 96.5t88.5 96l96 96q51 51 61.5 79.5t10.5 94.5v129h164zM657 997h-200v213h200v-213z" />
    <glyph glyph-name="Agrave" unicode="&#xc0;" horiz-adv-x="1366" 
d="M399 541h566l-193 503q-18 47 -47 134t-39 116h-4q-16 -41 -45 -125t-45 -125zM571 1458h238l551 -1458h-203l-141 389h-670l-145 -389h-195zM414 1843h221l213 -293h-143z" />
    <glyph glyph-name="Aacute" unicode="&#xc1;" horiz-adv-x="1366" 
d="M399 541h566l-193 503q-18 47 -47 134t-39 116h-4q-16 -41 -45 -125t-45 -125zM571 1458h238l551 -1458h-203l-141 389h-670l-145 -389h-195zM520 1550l213 293h221l-290 -293h-144z" />
    <glyph glyph-name="Acircumflex" unicode="&#xc2;" horiz-adv-x="1366" 
d="M399 541h566l-193 503q-18 47 -47 134t-39 116h-4q-16 -41 -45 -125t-45 -125zM571 1458h238l551 -1458h-203l-141 389h-670l-145 -389h-195zM365 1550l223 293h192l224 -293h-173l-147 203l-147 -203h-172z" />
    <glyph glyph-name="Atilde" unicode="&#xc3;" horiz-adv-x="1366" 
d="M399 541h566l-193 503q-18 47 -47 134t-39 116h-4q-16 -41 -45 -125t-45 -125zM571 1458h238l551 -1458h-203l-141 389h-670l-145 -389h-195zM438 1571h-94q17 116 73.5 166.5t119.5 50.5q57 0 149 -43t145 -43q36 0 59 21t40 73h94q-17 -116 -73.5 -166.5t-119.5 -50.5
q-11 0 -21.5 1t-22.5 4t-20 5.5t-22 7.5t-20 7.5t-22.5 9t-20.5 8.5q-6 2 -23.5 9.5t-25.5 10.5t-23 8.5t-25 8t-23 4.5t-25 2q-36 0 -59 -21t-40 -73z" />
    <glyph glyph-name="Adieresis" unicode="&#xc4;" horiz-adv-x="1366" 
d="M399 541h566l-193 503q-18 47 -47 134t-39 116h-4q-16 -41 -45 -125t-45 -125zM571 1458h238l551 -1458h-203l-141 389h-670l-145 -389h-195zM383 1602v180h201v-180h-201zM784 1602v180h201v-180h-201z" />
    <glyph glyph-name="Aring" unicode="&#xc5;" horiz-adv-x="1366" 
d="M399 541h566l-193 503q-18 47 -47 134t-39 116h-4q-16 -41 -45 -125t-45 -125zM571 1458h238l551 -1458h-203l-141 389h-670l-145 -389h-195zM487 1733q0 82 57 139t140 57q82 0 139.5 -57t57.5 -139t-57.5 -139.5t-139.5 -57.5q-83 0 -140 57.5t-57 139.5zM571 1733
q0 -46 33 -79.5t80 -33.5q46 0 79.5 33.5t33.5 79.5t-33.5 79t-79.5 33q-47 0 -80 -33t-33 -79z" />
    <glyph glyph-name="AE" unicode="&#xc6;" horiz-adv-x="1820" 
d="M940 1315l-440 -756h463v756h-23zM963 0v408h-547l-232 -408h-207l850 1458h883v-151h-559v-476h524v-151h-524v-528h580v-152h-768z" />
    <glyph glyph-name="Ccedilla" unicode="&#xc7;" horiz-adv-x="1327" 
d="M545 -170l104 143q-122 11 -219.5 60.5t-160.5 122.5t-105 169t-60 196t-18 208q0 164 37 295.5t98 216.5t144.5 142.5t171.5 81.5t184 24q62 0 118 -9.5t98.5 -24t81 -39t64.5 -45t51.5 -53t39 -52.5t29.5 -52.5t21 -45t15 -38.5l-184 -47q-12 46 -38 89t-66 81
t-99.5 61t-130.5 23q-96 0 -172.5 -37t-124.5 -96.5t-79.5 -140.5t-44.5 -163.5t-13 -170.5q0 -53 3.5 -103t15.5 -113t31 -116t52.5 -105.5t77.5 -89t109.5 -59t144.5 -22.5q147 0 232.5 79t119.5 208l187 -46q-120 -387 -527 -393l-67 -92q47 6 73 6q86 0 126 -44.5
t40 -98.5q0 -17 -4 -37t-19 -46.5t-38.5 -47t-67.5 -35t-102 -14.5q-43 0 -79.5 6.5t-57.5 13.5t-74 27l31 74q82 -37 159 -37q47 0 82 20.5t35 65.5q0 35 -30.5 57.5t-71.5 22.5t-86 -19z" />
    <glyph glyph-name="Egrave" unicode="&#xc8;" 
d="M152 0v1458h876v-151h-688v-476h653v-151h-653v-528h709v-152h-897zM299 1843h221l213 -293h-143z" />
    <glyph glyph-name="Eacute" unicode="&#xc9;" 
d="M152 0v1458h876v-151h-688v-476h653v-151h-653v-528h709v-152h-897zM406 1550l212 293h222l-291 -293h-143z" />
    <glyph glyph-name="Ecircumflex" unicode="&#xca;" 
d="M152 0v1458h876v-151h-688v-476h653v-151h-653v-528h709v-152h-897zM250 1550l223 293h193l223 -293h-172l-148 203l-147 -203h-172z" />
    <glyph glyph-name="Edieresis" unicode="&#xcb;" 
d="M152 0v1458h876v-151h-688v-476h653v-151h-653v-528h709v-152h-897zM268 1602v180h201v-180h-201zM670 1602v180h200v-180h-200z" />
    <glyph glyph-name="Igrave" unicode="&#xcc;" horiz-adv-x="495" 
d="M154 1458h188v-1458h-188v1458zM-23 1843h222l213 -293h-144z" />
    <glyph glyph-name="Iacute" unicode="&#xcd;" horiz-adv-x="495" 
d="M154 1458h188v-1458h-188v1458zM84 1550l213 293h221l-291 -293h-143z" />
    <glyph glyph-name="Icircumflex" unicode="&#xce;" horiz-adv-x="495" 
d="M154 1458h188v-1458h-188v1458zM-72 1550l224 293h192l223 -293h-172l-147 203l-148 -203h-172z" />
    <glyph glyph-name="Idieresis" unicode="&#xcf;" horiz-adv-x="495" 
d="M154 1458h188v-1458h-188v1458zM-53 1602v180h200v-180h-200zM348 1602v180h201v-180h-201z" />
    <glyph glyph-name="Eth" unicode="&#xd0;" horiz-adv-x="1366" 
d="M340 725v-573h205q84 0 154.5 12.5t143.5 50.5t122.5 100t81.5 167.5t32 246.5q0 274 -130 426t-404 152h-205v-471h401v-111h-401zM152 0v725h-150v111h150v622h446q159 0 289 -56t215.5 -154.5t131.5 -231.5t46 -287q0 -155 -43.5 -286t-128 -231t-220.5 -156t-310 -56
h-426z" />
    <glyph glyph-name="Ntilde" unicode="&#xd1;" horiz-adv-x="1441" 
d="M160 0v1458h250l585 -1018q69 -117 99 -200h10q-10 123 -10 182v1036h188v-1458h-252l-584 1030q-65 111 -98 201h-10q10 -122 10 -182v-1049h-188zM475 1571h-94q17 116 73 166.5t119 50.5q58 0 150 -43t145 -43q36 0 59 21t40 73h94q-17 -116 -73.5 -166.5
t-119.5 -50.5q-11 0 -21.5 1t-22.5 4t-20 5.5t-22 7.5t-20 7.5t-22.5 9t-20.5 8.5q-5 2 -24 10t-25.5 10.5t-22.5 8t-26 8t-23 4.5t-25 2q-36 0 -58.5 -20.5t-39.5 -73.5z" />
    <glyph glyph-name="Ograve" unicode="&#xd2;" horiz-adv-x="1441" 
d="M721 121q79 0 144.5 22.5t109.5 59t77.5 89t52.5 105.5t31 116t15.5 113t3.5 103q0 75 -7.5 142.5t-25 138.5t-50 128t-78.5 103t-116 71t-157 25q-96 0 -172.5 -37t-124.5 -96.5t-79.5 -140.5t-44.5 -163.5t-13 -170.5q0 -53 3.5 -103t15.5 -113t31 -116t52.5 -105.5
t77.5 -89t109.5 -59t144.5 -22.5zM721 -31q-138 0 -248 44t-181 117t-118.5 173t-67.5 205.5t-20 220.5q0 164 37 295.5t98 216.5t144.5 142.5t171.5 81.5t184 24q81 0 155.5 -17t147 -52.5t132 -96t105 -142.5t70.5 -197.5t25 -254.5q0 -115 -20 -220.5t-67.5 -205.5
t-118.5 -173t-181 -117t-248 -44zM451 1843h221l213 -293h-144z" />
    <glyph glyph-name="Oacute" unicode="&#xd3;" horiz-adv-x="1441" 
d="M721 121q79 0 144.5 22.5t109.5 59t77.5 89t52.5 105.5t31 116t15.5 113t3.5 103q0 75 -7.5 142.5t-25 138.5t-50 128t-78.5 103t-116 71t-157 25q-96 0 -172.5 -37t-124.5 -96.5t-79.5 -140.5t-44.5 -163.5t-13 -170.5q0 -53 3.5 -103t15.5 -113t31 -116t52.5 -105.5
t77.5 -89t109.5 -59t144.5 -22.5zM721 -31q-138 0 -248 44t-181 117t-118.5 173t-67.5 205.5t-20 220.5q0 164 37 295.5t98 216.5t144.5 142.5t171.5 81.5t184 24q81 0 155.5 -17t147 -52.5t132 -96t105 -142.5t70.5 -197.5t25 -254.5q0 -115 -20 -220.5t-67.5 -205.5
t-118.5 -173t-181 -117t-248 -44zM557 1550l213 293h221l-291 -293h-143z" />
    <glyph glyph-name="Ocircumflex" unicode="&#xd4;" horiz-adv-x="1441" 
d="M721 121q79 0 144.5 22.5t109.5 59t77.5 89t52.5 105.5t31 116t15.5 113t3.5 103q0 75 -7.5 142.5t-25 138.5t-50 128t-78.5 103t-116 71t-157 25q-96 0 -172.5 -37t-124.5 -96.5t-79.5 -140.5t-44.5 -163.5t-13 -170.5q0 -53 3.5 -103t15.5 -113t31 -116t52.5 -105.5
t77.5 -89t109.5 -59t144.5 -22.5zM721 -31q-138 0 -248 44t-181 117t-118.5 173t-67.5 205.5t-20 220.5q0 164 37 295.5t98 216.5t144.5 142.5t171.5 81.5t184 24q81 0 155.5 -17t147 -52.5t132 -96t105 -142.5t70.5 -197.5t25 -254.5q0 -115 -20 -220.5t-67.5 -205.5
t-118.5 -173t-181 -117t-248 -44zM401 1550l224 293h192l223 -293h-172l-147 203l-148 -203h-172z" />
    <glyph glyph-name="Otilde" unicode="&#xd5;" horiz-adv-x="1441" 
d="M721 121q79 0 144.5 22.5t109.5 59t77.5 89t52.5 105.5t31 116t15.5 113t3.5 103q0 75 -7.5 142.5t-25 138.5t-50 128t-78.5 103t-116 71t-157 25q-96 0 -172.5 -37t-124.5 -96.5t-79.5 -140.5t-44.5 -163.5t-13 -170.5q0 -53 3.5 -103t15.5 -113t31 -116t52.5 -105.5
t77.5 -89t109.5 -59t144.5 -22.5zM721 -31q-138 0 -248 44t-181 117t-118.5 173t-67.5 205.5t-20 220.5q0 164 37 295.5t98 216.5t144.5 142.5t171.5 81.5t184 24q81 0 155.5 -17t147 -52.5t132 -96t105 -142.5t70.5 -197.5t25 -254.5q0 -115 -20 -220.5t-67.5 -205.5
t-118.5 -173t-181 -117t-248 -44zM475 1571h-94q17 116 73 166.5t119 50.5q58 0 150 -43t145 -43q36 0 59 21t40 73h94q-17 -116 -73.5 -166.5t-119.5 -50.5q-11 0 -21.5 1t-22.5 4t-20 5.5t-22 7.5t-20 7.5t-22.5 9t-20.5 8.5q-5 2 -24 10t-25.5 10.5t-22.5 8t-26 8
t-23 4.5t-25 2q-36 0 -58.5 -20.5t-39.5 -73.5z" />
    <glyph glyph-name="Odieresis" unicode="&#xd6;" horiz-adv-x="1441" 
d="M721 121q79 0 144.5 22.5t109.5 59t77.5 89t52.5 105.5t31 116t15.5 113t3.5 103q0 75 -7.5 142.5t-25 138.5t-50 128t-78.5 103t-116 71t-157 25q-96 0 -172.5 -37t-124.5 -96.5t-79.5 -140.5t-44.5 -163.5t-13 -170.5q0 -53 3.5 -103t15.5 -113t31 -116t52.5 -105.5
t77.5 -89t109.5 -59t144.5 -22.5zM721 -31q-138 0 -248 44t-181 117t-118.5 173t-67.5 205.5t-20 220.5q0 164 37 295.5t98 216.5t144.5 142.5t171.5 81.5t184 24q81 0 155.5 -17t147 -52.5t132 -96t105 -142.5t70.5 -197.5t25 -254.5q0 -115 -20 -220.5t-67.5 -205.5
t-118.5 -173t-181 -117t-248 -44zM420 1602v180h201v-180h-201zM821 1602v180h201v-180h-201z" />
    <glyph glyph-name="multiply" unicode="&#xd7;" horiz-adv-x="1228" 
d="M520 518l-373 373l95 94l370 -375l375 375l94 -94l-374 -373l374 -373l-94 -94l-375 375l-370 -375l-95 94z" />
    <glyph glyph-name="Oslash" unicode="&#xd8;" horiz-adv-x="1441" 
d="M1096 1085l-705 -796q108 -168 330 -168q79 0 144.5 22.5t109.5 59t77.5 89t52.5 105.5t31 116t15.5 113t3.5 103q0 213 -59 356zM350 367l707 796q-105 174 -336 174q-96 0 -172.5 -37t-124.5 -96.5t-79.5 -140.5t-44.5 -163.5t-13 -170.5q0 -221 63 -362zM78 57
l143 162q-135 201 -135 510q0 164 37 295.5t98 216.5t144.5 142.5t171.5 81.5t184 24q285 0 457 -189l125 142l61 -53l-137 -154q129 -185 129 -506q0 -115 -20 -220.5t-67.5 -205.5t-118.5 -173t-181 -117t-248 -44q-286 0 -449 185l-133 -150z" />
    <glyph glyph-name="Ugrave" unicode="&#xd9;" horiz-adv-x="1368" 
d="M1217 1458v-885q0 -101 -17 -185.5t-46 -145.5t-70.5 -109t-88 -78.5t-100.5 -50t-105 -27.5t-106 -8q-78 0 -148.5 16t-142.5 58t-124 108t-84.5 174.5t-32.5 247.5v885h188v-934q0 -78 18 -146.5t56.5 -128t107.5 -94t162 -34.5t162 34.5t107.5 94t56.5 128t18 146.5
v934h189zM414 1843h221l213 -293h-143z" />
    <glyph glyph-name="Uacute" unicode="&#xda;" horiz-adv-x="1368" 
d="M1217 1458v-885q0 -101 -17 -185.5t-46 -145.5t-70.5 -109t-88 -78.5t-100.5 -50t-105 -27.5t-106 -8q-78 0 -148.5 16t-142.5 58t-124 108t-84.5 174.5t-32.5 247.5v885h188v-934q0 -78 18 -146.5t56.5 -128t107.5 -94t162 -34.5t162 34.5t107.5 94t56.5 128t18 146.5
v934h189zM520 1550l213 293h221l-290 -293h-144z" />
    <glyph glyph-name="Ucircumflex" unicode="&#xdb;" horiz-adv-x="1368" 
d="M1217 1458v-885q0 -101 -17 -185.5t-46 -145.5t-70.5 -109t-88 -78.5t-100.5 -50t-105 -27.5t-106 -8q-78 0 -148.5 16t-142.5 58t-124 108t-84.5 174.5t-32.5 247.5v885h188v-934q0 -78 18 -146.5t56.5 -128t107.5 -94t162 -34.5t162 34.5t107.5 94t56.5 128t18 146.5
v934h189zM365 1550l223 293h192l224 -293h-173l-147 203l-147 -203h-172z" />
    <glyph glyph-name="Udieresis" unicode="&#xdc;" horiz-adv-x="1368" 
d="M1217 1458v-885q0 -101 -17 -185.5t-46 -145.5t-70.5 -109t-88 -78.5t-100.5 -50t-105 -27.5t-106 -8q-78 0 -148.5 16t-142.5 58t-124 108t-84.5 174.5t-32.5 247.5v885h188v-934q0 -78 18 -146.5t56.5 -128t107.5 -94t162 -34.5t162 34.5t107.5 94t56.5 128t18 146.5
v934h189zM383 1602v180h201v-180h-201zM784 1602v180h201v-180h-201z" />
    <glyph glyph-name="Yacute" unicode="&#xdd;" horiz-adv-x="1249" 
d="M530 0v596l-516 862h226l327 -571q23 -40 60 -123h4q34 77 61 123l330 571h213l-516 -862v-596h-189zM461 1550l213 293h221l-291 -293h-143z" />
    <glyph glyph-name="Thorn" unicode="&#xde;" horiz-adv-x="1214" 
d="M152 0v1458h188v-231h274q44 0 84.5 -3t94 -13.5t98 -28t90 -50t77 -75.5t51 -107.5t19.5 -144.5q0 -77 -16.5 -140.5t-44 -108.5t-67 -79t-82.5 -55t-94 -34t-97 -18t-96 -5h-291v-365h-188zM340 1075v-559h291q144 0 226.5 69.5t82.5 209.5q0 65 -19.5 116t-50 81
t-72.5 49.5t-82.5 26.5t-84.5 7h-291z" />
    <glyph glyph-name="germandbls" unicode="&#xdf;" horiz-adv-x="1175" 
d="M324 0h-181v1151q0 88 18 160t46.5 119t68.5 82.5t78.5 54.5t82.5 31t75 15t61 3q190 0 306 -102t116 -289q0 -74 -20.5 -135.5t-50 -99t-67 -65t-68 -39.5t-56.5 -16v-4q55 -8 102 -25t93 -49.5t78 -78.5t51.5 -114.5t19.5 -154.5q0 -213 -120 -334.5t-310 -121.5
q-111 0 -201 35l52 143q68 -35 139 -35q122 0 191 93.5t69 236.5q0 323 -338 323h-61v144q26 0 43 0.5t54 6t62 15t57.5 30.5t52.5 49.5t34 74.5t14 104q0 139 -65 202t-168 63q-79 0 -132 -26t-79.5 -77t-36.5 -109.5t-10 -140.5v-1120z" />
    <glyph glyph-name="agrave" unicode="&#xe0;" horiz-adv-x="1099" 
d="M285 885l-156 47q19 50 38.5 88t55 81t79.5 70t112 45.5t153 18.5q103 0 179 -28t119 -70.5t68 -106.5t32.5 -121.5t7.5 -130.5v-637q0 -73 10 -141h-190v205h-5q-87 -114 -178 -165.5t-200 -51.5q-72 0 -130.5 20.5t-96.5 54t-63.5 79t-36.5 92.5t-11 96q0 203 145 309
t401 106h175v78q0 22 -0.5 36t-3 41.5t-9 46.5t-17 44.5t-28.5 43t-41.5 33.5t-58.5 24t-78 8q-106 0 -167.5 -54t-104.5 -161zM793 610h-131q-198 0 -304 -65t-106 -199q0 -93 49 -154t154 -61q71 0 148.5 40.5t189.5 166.5v272zM281 1653h221l213 -293h-144z" />
    <glyph glyph-name="aacute" unicode="&#xe1;" horiz-adv-x="1099" 
d="M285 885l-156 47q19 50 38.5 88t55 81t79.5 70t112 45.5t153 18.5q103 0 179 -28t119 -70.5t68 -106.5t32.5 -121.5t7.5 -130.5v-637q0 -73 10 -141h-190v205h-5q-87 -114 -178 -165.5t-200 -51.5q-72 0 -130.5 20.5t-96.5 54t-63.5 79t-36.5 92.5t-11 96q0 203 145 309
t401 106h175v78q0 22 -0.5 36t-3 41.5t-9 46.5t-17 44.5t-28.5 43t-41.5 33.5t-58.5 24t-78 8q-106 0 -167.5 -54t-104.5 -161zM793 610h-131q-198 0 -304 -65t-106 -199q0 -93 49 -154t154 -61q71 0 148.5 40.5t189.5 166.5v272zM387 1360l213 293h221l-291 -293h-143z" />
    <glyph glyph-name="acircumflex" unicode="&#xe2;" horiz-adv-x="1099" 
d="M285 885l-156 47q19 50 38.5 88t55 81t79.5 70t112 45.5t153 18.5q103 0 179 -28t119 -70.5t68 -106.5t32.5 -121.5t7.5 -130.5v-637q0 -73 10 -141h-190v205h-5q-87 -114 -178 -165.5t-200 -51.5q-72 0 -130.5 20.5t-96.5 54t-63.5 79t-36.5 92.5t-11 96q0 203 145 309
t401 106h175v78q0 22 -0.5 36t-3 41.5t-9 46.5t-17 44.5t-28.5 43t-41.5 33.5t-58.5 24t-78 8q-106 0 -167.5 -54t-104.5 -161zM793 610h-131q-198 0 -304 -65t-106 -199q0 -93 49 -154t154 -61q71 0 148.5 40.5t189.5 166.5v272zM231 1360l224 293h192l223 -293h-172
l-147 203l-148 -203h-172z" />
    <glyph glyph-name="atilde" unicode="&#xe3;" horiz-adv-x="1099" 
d="M285 885l-156 47q19 50 38.5 88t55 81t79.5 70t112 45.5t153 18.5q103 0 179 -28t119 -70.5t68 -106.5t32.5 -121.5t7.5 -130.5v-637q0 -73 10 -141h-190v205h-5q-87 -114 -178 -165.5t-200 -51.5q-72 0 -130.5 20.5t-96.5 54t-63.5 79t-36.5 92.5t-11 96q0 203 145 309
t401 106h175v78q0 22 -0.5 36t-3 41.5t-9 46.5t-17 44.5t-28.5 43t-41.5 33.5t-58.5 24t-78 8q-106 0 -167.5 -54t-104.5 -161zM793 610h-131q-198 0 -304 -65t-106 -199q0 -93 49 -154t154 -61q71 0 148.5 40.5t189.5 166.5v272zM305 1380h-94q17 116 73 166.5t119 50.5
q58 0 150 -43t145 -43q36 0 59 21t40 74h94q-17 -116 -73.5 -166.5t-119.5 -50.5q-11 0 -21.5 1t-22.5 4t-20 5.5t-22 7.5t-20 7.5t-22.5 9t-20.5 8.5q-5 2 -24 10t-25.5 10.5t-22.5 8t-26 8t-23 4.5t-25 2q-36 0 -58.5 -21t-39.5 -74z" />
    <glyph glyph-name="adieresis" unicode="&#xe4;" horiz-adv-x="1099" 
d="M285 885l-156 47q19 50 38.5 88t55 81t79.5 70t112 45.5t153 18.5q103 0 179 -28t119 -70.5t68 -106.5t32.5 -121.5t7.5 -130.5v-637q0 -73 10 -141h-190v205h-5q-87 -114 -178 -165.5t-200 -51.5q-72 0 -130.5 20.5t-96.5 54t-63.5 79t-36.5 92.5t-11 96q0 203 145 309
t401 106h175v78q0 22 -0.5 36t-3 41.5t-9 46.5t-17 44.5t-28.5 43t-41.5 33.5t-58.5 24t-78 8q-106 0 -167.5 -54t-104.5 -161zM793 610h-131q-198 0 -304 -65t-106 -199q0 -93 49 -154t154 -61q71 0 148.5 40.5t189.5 166.5v272zM250 1411v180h201v-180h-201zM651 1411v180
h201v-180h-201z" />
    <glyph glyph-name="aring" unicode="&#xe5;" horiz-adv-x="1099" 
d="M285 885l-156 47q19 50 38.5 88t55 81t79.5 70t112 45.5t153 18.5q103 0 179 -28t119 -70.5t68 -106.5t32.5 -121.5t7.5 -130.5v-637q0 -73 10 -141h-190v205h-5q-87 -114 -178 -165.5t-200 -51.5q-72 0 -130.5 20.5t-96.5 54t-63.5 79t-36.5 92.5t-11 96q0 203 145 309
t401 106h175v78q0 22 -0.5 36t-3 41.5t-9 46.5t-17 44.5t-28.5 43t-41.5 33.5t-58.5 24t-78 8q-106 0 -167.5 -54t-104.5 -161zM793 610h-131q-198 0 -304 -65t-106 -199q0 -93 49 -154t154 -61q71 0 148.5 40.5t189.5 166.5v272zM354 1522q0 82 57 139t140 57
q82 0 139.5 -57t57.5 -139t-57.5 -139.5t-139.5 -57.5q-83 0 -140 57.5t-57 139.5zM438 1522q0 -46 33 -79.5t80 -33.5q46 0 79.5 33.5t33.5 79.5t-33.5 79t-79.5 33q-47 0 -80 -33t-33 -79z" />
    <glyph glyph-name="ae" unicode="&#xe6;" horiz-adv-x="1820" 
d="M809 342v252h-129q-201 0 -311.5 -62t-110.5 -190q0 -96 49 -159.5t154 -63.5q69 0 176 59.5t172 163.5zM809 729v129q0 108 -66 175t-180 67q-107 0 -168 -53t-104 -162l-156 47q19 50 38.5 88t55 81t79.5 70t112 45.5t153 18.5q53 0 97.5 -8.5t91 -30t88 -63.5
t74.5 -103q25 37 41 58t49 53.5t65 50t82.5 31t108.5 12.5q101 0 182.5 -34t134.5 -90t89 -133t51.5 -158.5t15.5 -170.5v-55h-754v-78q0 -106 30 -194t95.5 -145.5t155.5 -57.5q56 0 104 16t78.5 39.5t54.5 54t36 55.5t18 48l157 -56q-60 -143 -173 -222t-275 -79
q-64 1 -121 18t-93 38t-74 60t-54.5 61t-44.5 63q-7 11 -11 16q-139 -147 -241 -201.5t-215 -54.5q-83 0 -149 30t-106.5 80t-61.5 112.5t-21 130.5q0 88 34 158t89 114.5t129.5 74t151 42t157.5 12.5h170zM1276 1092q-75 0 -132 -32t-89.5 -85.5t-48.5 -115.5t-17 -130h574
q-1 68 -17 130t-48.5 115.5t-89.5 85.5t-132 32z" />
    <glyph glyph-name="ccedilla" unicode="&#xe7;" horiz-adv-x="1062" 
d="M852 340l158 -51q-32 -72 -62.5 -121t-79.5 -96t-119.5 -71.5t-164.5 -25.5l-72 -98q47 6 74 6q86 0 126 -44.5t40 -98.5q0 -17 -4.5 -37t-19 -46.5t-38.5 -47t-68 -35t-102 -14.5q-43 0 -79.5 6.5t-57.5 13.5t-74 27l31 74q82 -37 160 -37q47 0 81.5 20.5t34.5 65.5
q0 35 -30.5 57.5t-71.5 22.5t-86 -19l-37 39l111 145q-97 14 -171 60.5t-117.5 109t-71 145t-37 158t-9.5 158.5q0 57 5.5 112t20.5 119t39 119.5t64 107.5t91.5 89t126 59.5t163.5 22.5q142 0 239.5 -74t158.5 -243l-162 -50q-64 224 -236 224q-74 0 -131.5 -28.5
t-92.5 -74.5t-57.5 -110.5t-31 -130t-8.5 -140.5q0 -98 14 -180.5t46 -154.5t90.5 -113t139.5 -41q200 0 277 221z" />
    <glyph glyph-name="egrave" unicode="&#xe8;" 
d="M266 694h606q0 111 -31.5 199.5t-98.5 143.5t-160 55q-138 0 -217.5 -104t-98.5 -294zM1061 559h-795q6 -228 96.5 -334t225.5 -106q56 0 104 16t78.5 39.5t54.5 54t36 55.5t18 48l157 -56q-60 -143 -173 -222t-275 -79q-89 0 -163.5 22.5t-126 59.5t-91.5 89.5
t-64 107.5t-39 119.5t-20.5 120t-5.5 112.5t5.5 112t20.5 119t39 119.5t64 107.5t91.5 89t126 59.5t163.5 22.5q101 0 182.5 -34t134.5 -90t89 -133t51.5 -158.5t15.5 -170.5v-90zM299 1653h221l213 -293h-143z" />
    <glyph glyph-name="eacute" unicode="&#xe9;" 
d="M266 694h606q0 111 -31.5 199.5t-98.5 143.5t-160 55q-138 0 -217.5 -104t-98.5 -294zM1061 559h-795q6 -228 96.5 -334t225.5 -106q56 0 104 16t78.5 39.5t54.5 54t36 55.5t18 48l157 -56q-60 -143 -173 -222t-275 -79q-89 0 -163.5 22.5t-126 59.5t-91.5 89.5
t-64 107.5t-39 119.5t-20.5 120t-5.5 112.5t5.5 112t20.5 119t39 119.5t64 107.5t91.5 89t126 59.5t163.5 22.5q101 0 182.5 -34t134.5 -90t89 -133t51.5 -158.5t15.5 -170.5v-90zM406 1360l212 293h222l-291 -293h-143z" />
    <glyph glyph-name="ecircumflex" unicode="&#xea;" 
d="M266 694h606q0 111 -31.5 199.5t-98.5 143.5t-160 55q-138 0 -217.5 -104t-98.5 -294zM1061 559h-795q6 -228 96.5 -334t225.5 -106q56 0 104 16t78.5 39.5t54.5 54t36 55.5t18 48l157 -56q-60 -143 -173 -222t-275 -79q-89 0 -163.5 22.5t-126 59.5t-91.5 89.5
t-64 107.5t-39 119.5t-20.5 120t-5.5 112.5t5.5 112t20.5 119t39 119.5t64 107.5t91.5 89t126 59.5t163.5 22.5q101 0 182.5 -34t134.5 -90t89 -133t51.5 -158.5t15.5 -170.5v-90zM250 1360l223 293h193l223 -293h-172l-148 203l-147 -203h-172z" />
    <glyph glyph-name="edieresis" unicode="&#xeb;" 
d="M266 694h606q0 111 -31.5 199.5t-98.5 143.5t-160 55q-138 0 -217.5 -104t-98.5 -294zM1061 559h-795q6 -228 96.5 -334t225.5 -106q56 0 104 16t78.5 39.5t54.5 54t36 55.5t18 48l157 -56q-60 -143 -173 -222t-275 -79q-89 0 -163.5 22.5t-126 59.5t-91.5 89.5
t-64 107.5t-39 119.5t-20.5 120t-5.5 112.5t5.5 112t20.5 119t39 119.5t64 107.5t91.5 89t126 59.5t163.5 22.5q101 0 182.5 -34t134.5 -90t89 -133t51.5 -158.5t15.5 -170.5v-90zM268 1411v180h201v-180h-201zM670 1411v180h200v-180h-200z" />
    <glyph glyph-name="igrave" unicode="&#xec;" horiz-adv-x="495" 
d="M158 0v1210h180v-1210h-180zM-23 1653h222l213 -293h-144z" />
    <glyph glyph-name="iacute" unicode="&#xed;" horiz-adv-x="495" 
d="M158 0v1210h180v-1210h-180zM84 1360l213 293h221l-291 -293h-143z" />
    <glyph glyph-name="icircumflex" unicode="&#xee;" horiz-adv-x="495" 
d="M158 0v1210h180v-1210h-180zM-72 1360l224 293h192l223 -293h-172l-147 203l-148 -203h-172z" />
    <glyph glyph-name="idieresis" unicode="&#xef;" horiz-adv-x="495" 
d="M158 0v1210h180v-1210h-180zM-53 1411v180h200v-180h-200zM348 1411v180h201v-180h-201z" />
    <glyph glyph-name="eth" unicode="&#xf0;" horiz-adv-x="1175" 
d="M588 119q74 0 131.5 28.5t92.5 74.5t57.5 111.5t31 132t8.5 142.5q-2 83 -21.5 156.5t-58 136.5t-104.5 100t-152 37q-76 0 -135.5 -37t-95.5 -99.5t-55 -137t-21 -156.5q0 -76 8.5 -142.5t31 -132t58 -111.5t93 -74.5t131.5 -28.5zM315 1229l-69 76l203 102
q-65 53 -164 111l133 98q94 -50 190 -127l215 108l70 -75l-201 -101q188 -168 297 -376.5t109 -438.5q0 -57 -5.5 -112.5t-20.5 -120t-39 -119.5t-64 -107.5t-91.5 -89.5t-126 -59.5t-163.5 -22.5t-163.5 22.5t-126 59.5t-91.5 89.5t-64 107.5t-39 119.5t-20.5 120
t-5.5 112.5q3 149 56.5 274t161.5 205t253 80q70 0 117.5 -19.5t93.5 -53.5l4 4q-87 123 -229 245z" />
    <glyph glyph-name="ntilde" unicode="&#xf1;" horiz-adv-x="1175" 
d="M143 0v1210h181v-196q5 4 37.5 33.5t43 39t42.5 35.5t50 36.5t50.5 29t58.5 26.5t59.5 14.5t67.5 6.5q143 0 221.5 -87t77.5 -255v-893h-180v827q0 40 -4 73t-15.5 66t-31 55t-52 36t-75.5 14q-59 0 -112.5 -18.5t-100 -55.5t-73 -64t-64.5 -71v-862h-181zM342 1380h-94
q17 116 73 166.5t119 50.5q58 0 150 -43t145 -43q36 0 59 21t40 74h94q-17 -116 -73.5 -166.5t-119.5 -50.5q-11 0 -21.5 1t-22.5 4t-20 5.5t-22 7.5t-20 7.5t-22.5 9t-20.5 8.5q-5 2 -24 10t-25.5 10.5t-22.5 8t-26 8t-23 4.5t-25 2q-36 0 -58.5 -21t-39.5 -74z" />
    <glyph glyph-name="ograve" unicode="&#xf2;" horiz-adv-x="1175" 
d="M588 -25q-89 0 -163.5 22.5t-126 59.5t-91.5 89.5t-64 107.5t-39 119.5t-20.5 120t-5.5 112.5q0 96 17 185t56 170.5t97 141.5t145 96t195 36q89 0 163.5 -22.5t126 -59.5t91.5 -89t64 -107.5t39 -119.5t20.5 -119t5.5 -112q0 -97 -17 -186t-56 -171t-97 -142t-145 -96
t-195 -36zM588 1092q-74 0 -131.5 -28.5t-92.5 -74.5t-58 -110.5t-31.5 -130t-8.5 -140.5q0 -76 8.5 -142.5t31 -132t58 -111.5t93 -74.5t131.5 -28.5t131.5 28.5t92.5 74.5t57.5 111.5t31 132t8.5 142.5q0 75 -8.5 140.5t-31 130t-57.5 110.5t-92.5 74.5t-131.5 28.5z
M317 1653h222l213 -293h-144z" />
    <glyph glyph-name="oacute" unicode="&#xf3;" horiz-adv-x="1175" 
d="M588 -25q-89 0 -163.5 22.5t-126 59.5t-91.5 89.5t-64 107.5t-39 119.5t-20.5 120t-5.5 112.5q0 96 17 185t56 170.5t97 141.5t145 96t195 36q89 0 163.5 -22.5t126 -59.5t91.5 -89t64 -107.5t39 -119.5t20.5 -119t5.5 -112q0 -97 -17 -186t-56 -171t-97 -142t-145 -96
t-195 -36zM588 1092q-74 0 -131.5 -28.5t-92.5 -74.5t-58 -110.5t-31.5 -130t-8.5 -140.5q0 -76 8.5 -142.5t31 -132t58 -111.5t93 -74.5t131.5 -28.5t131.5 28.5t92.5 74.5t57.5 111.5t31 132t8.5 142.5q0 75 -8.5 140.5t-31 130t-57.5 110.5t-92.5 74.5t-131.5 28.5z
M424 1360l213 293h221l-291 -293h-143z" />
    <glyph glyph-name="ocircumflex" unicode="&#xf4;" horiz-adv-x="1175" 
d="M588 -25q-89 0 -163.5 22.5t-126 59.5t-91.5 89.5t-64 107.5t-39 119.5t-20.5 120t-5.5 112.5q0 96 17 185t56 170.5t97 141.5t145 96t195 36q89 0 163.5 -22.5t126 -59.5t91.5 -89t64 -107.5t39 -119.5t20.5 -119t5.5 -112q0 -97 -17 -186t-56 -171t-97 -142t-145 -96
t-195 -36zM588 1092q-74 0 -131.5 -28.5t-92.5 -74.5t-58 -110.5t-31.5 -130t-8.5 -140.5q0 -76 8.5 -142.5t31 -132t58 -111.5t93 -74.5t131.5 -28.5t131.5 28.5t92.5 74.5t57.5 111.5t31 132t8.5 142.5q0 75 -8.5 140.5t-31 130t-57.5 110.5t-92.5 74.5t-131.5 28.5z
M268 1360l224 293h192l223 -293h-172l-147 203l-148 -203h-172z" />
    <glyph glyph-name="otilde" unicode="&#xf5;" horiz-adv-x="1175" 
d="M588 -25q-89 0 -163.5 22.5t-126 59.5t-91.5 89.5t-64 107.5t-39 119.5t-20.5 120t-5.5 112.5q0 96 17 185t56 170.5t97 141.5t145 96t195 36q89 0 163.5 -22.5t126 -59.5t91.5 -89t64 -107.5t39 -119.5t20.5 -119t5.5 -112q0 -97 -17 -186t-56 -171t-97 -142t-145 -96
t-195 -36zM588 1092q-74 0 -131.5 -28.5t-92.5 -74.5t-58 -110.5t-31.5 -130t-8.5 -140.5q0 -76 8.5 -142.5t31 -132t58 -111.5t93 -74.5t131.5 -28.5t131.5 28.5t92.5 74.5t57.5 111.5t31 132t8.5 142.5q0 75 -8.5 140.5t-31 130t-57.5 110.5t-92.5 74.5t-131.5 28.5z
M342 1380h-94q17 116 73 166.5t119 50.5q58 0 150 -43t145 -43q36 0 59 21t40 74h94q-17 -116 -73.5 -166.5t-119.5 -50.5q-11 0 -21.5 1t-22.5 4t-20 5.5t-22 7.5t-20 7.5t-22.5 9t-20.5 8.5q-5 2 -24 10t-25.5 10.5t-22.5 8t-26 8t-23 4.5t-25 2q-36 0 -58.5 -21
t-39.5 -74z" />
    <glyph glyph-name="odieresis" unicode="&#xf6;" horiz-adv-x="1175" 
d="M588 -25q-89 0 -163.5 22.5t-126 59.5t-91.5 89.5t-64 107.5t-39 119.5t-20.5 120t-5.5 112.5q0 96 17 185t56 170.5t97 141.5t145 96t195 36q89 0 163.5 -22.5t126 -59.5t91.5 -89t64 -107.5t39 -119.5t20.5 -119t5.5 -112q0 -97 -17 -186t-56 -171t-97 -142t-145 -96
t-195 -36zM588 1092q-74 0 -131.5 -28.5t-92.5 -74.5t-58 -110.5t-31.5 -130t-8.5 -140.5q0 -76 8.5 -142.5t31 -132t58 -111.5t93 -74.5t131.5 -28.5t131.5 28.5t92.5 74.5t57.5 111.5t31 132t8.5 142.5q0 75 -8.5 140.5t-31 130t-57.5 110.5t-92.5 74.5t-131.5 28.5z
M287 1411v180h200v-180h-200zM688 1411v180h201v-180h-201z" />
    <glyph glyph-name="divide" unicode="&#xf7;" horiz-adv-x="1228" 
d="M1130 451h-1032v135h1032v-135zM483 942q0 54 39 92.5t92 38.5q52 0 91.5 -39.5t39.5 -91.5q0 -50 -39.5 -90.5t-89.5 -40.5q-54 0 -93.5 39t-39.5 92zM483 94q0 54 39 92.5t92 38.5q52 0 91.5 -39.5t39.5 -91.5q0 -50 -39.5 -90.5t-89.5 -40.5q-54 0 -93.5 39t-39.5 92z
" />
    <glyph glyph-name="oslash" unicode="&#xf8;" horiz-adv-x="1175" 
d="M303 344l533 606q-79 142 -248 142q-74 0 -131.5 -28.5t-92.5 -74.5t-58 -110.5t-31.5 -130t-8.5 -140.5q0 -157 37 -264zM872 866l-532 -606q82 -141 248 -141q74 0 131.5 28.5t92.5 74.5t57.5 111.5t31 132t8.5 142.5q0 151 -37 258zM45 51l127 146q-94 164 -94 409
q0 96 17 185t56 170.5t97 141.5t145 96t195 36q232 0 364 -152l117 131l61 -55l-126 -145q94 -159 94 -408q0 -97 -17 -186t-56 -171t-97 -142t-145 -96t-195 -36q-233 0 -365 152l-117 -131z" />
    <glyph glyph-name="ugrave" unicode="&#xf9;" horiz-adv-x="1175" 
d="M1032 1210v-1210h-180v197q-5 -5 -37.5 -34t-43 -38.5t-43 -35.5t-50.5 -37t-50.5 -29.5t-58.5 -26t-60 -14.5t-67 -7q-143 0 -221.5 87t-77.5 255v893h181v-827q0 -40 4 -73t15.5 -66t31 -55t52 -36t75.5 -14q59 0 112.5 18.5t100 55.5t73 64t64.5 71v862h180zM317 1653
h222l213 -293h-144z" />
    <glyph glyph-name="uacute" unicode="&#xfa;" horiz-adv-x="1175" 
d="M1032 1210v-1210h-180v197q-5 -5 -37.5 -34t-43 -38.5t-43 -35.5t-50.5 -37t-50.5 -29.5t-58.5 -26t-60 -14.5t-67 -7q-143 0 -221.5 87t-77.5 255v893h181v-827q0 -40 4 -73t15.5 -66t31 -55t52 -36t75.5 -14q59 0 112.5 18.5t100 55.5t73 64t64.5 71v862h180zM424 1360
l213 293h221l-291 -293h-143z" />
    <glyph glyph-name="ucircumflex" unicode="&#xfb;" horiz-adv-x="1175" 
d="M1032 1210v-1210h-180v197q-5 -5 -37.5 -34t-43 -38.5t-43 -35.5t-50.5 -37t-50.5 -29.5t-58.5 -26t-60 -14.5t-67 -7q-143 0 -221.5 87t-77.5 255v893h181v-827q0 -40 4 -73t15.5 -66t31 -55t52 -36t75.5 -14q59 0 112.5 18.5t100 55.5t73 64t64.5 71v862h180zM268 1360
l224 293h192l223 -293h-172l-147 203l-148 -203h-172z" />
    <glyph glyph-name="udieresis" unicode="&#xfc;" horiz-adv-x="1175" 
d="M1032 1210v-1210h-180v197q-5 -5 -37.5 -34t-43 -38.5t-43 -35.5t-50.5 -37t-50.5 -29.5t-58.5 -26t-60 -14.5t-67 -7q-143 0 -221.5 87t-77.5 255v893h181v-827q0 -40 4 -73t15.5 -66t31 -55t52 -36t75.5 -14q59 0 112.5 18.5t100 55.5t73 64t64.5 71v862h180zM287 1411
v180h200v-180h-200zM688 1411v180h201v-180h-201z" />
    <glyph glyph-name="yacute" unicode="&#xfd;" horiz-adv-x="1024" 
d="M-6 1210h201l243 -712q53 -157 82 -295h4q29 138 82 295l238 712h186l-473 -1362q-46 -131 -116.5 -196.5t-178.5 -65.5q-67 0 -137 21l10 157q35 -14 92 -14q40 0 66.5 16.5t59 72t73.5 165.5zM348 1360l213 293h221l-290 -293h-144z" />
    <glyph glyph-name="thorn" unicode="&#xfe;" horiz-adv-x="1175" 
d="M324 901v-594q55 -76 132.5 -128t159.5 -52q54 0 98 17.5t74 46t52.5 68.5t35 80.5t20.5 88t10.5 84.5t2.5 76q0 55 -4.5 106t-15.5 110t-33 106.5t-53 87.5t-79.5 62.5t-109.5 22.5q-105 0 -182 -58t-108 -124zM143 -381v1972h181v-538h4q18 29 44 57t66 58t97.5 48.5
t123.5 18.5q205 0 322 -168t117 -467q0 -141 -26.5 -252t-68.5 -179.5t-98.5 -113.5t-112.5 -62.5t-116 -17.5q-97 0 -178.5 39.5t-173.5 143.5v-539h-181z" />
    <glyph glyph-name="ydieresis" unicode="&#xff;" horiz-adv-x="1024" 
d="M-6 1210h201l243 -712q53 -157 82 -295h4q29 138 82 295l238 712h186l-473 -1362q-46 -131 -116.5 -196.5t-178.5 -65.5q-67 0 -137 21l10 157q35 -14 92 -14q40 0 66.5 16.5t59 72t73.5 165.5zM211 1411v180h201v-180h-201zM612 1411v180h201v-180h-201z" />
    <glyph glyph-name="dotlessi" unicode="&#x131;" horiz-adv-x="495" 
d="M158 0v1210h180v-1210h-180z" />
    <glyph glyph-name="Lslash" unicode="&#x141;" horiz-adv-x="985" 
d="M152 0v555l-136 -88v125l136 90v776h188v-651l422 276v-129l-422 -276v-526h629v-152h-817z" />
    <glyph glyph-name="lslash" unicode="&#x142;" horiz-adv-x="495" 
d="M158 0v651l-158 -112v118l158 113v821h180v-694l158 111v-119l-158 -111v-778h-180z" />
    <glyph glyph-name="OE" unicode="&#x152;" horiz-adv-x="1781" 
d="M1671 1458v-151h-559v-476h524v-151h-524v-528h580v-152h-648q-74 0 -147 -6t-147 -6q-303 0 -483.5 196t-180.5 545t180.5 545t483.5 196q74 0 147 -6q16 -1 46 -2.5t54.5 -2.5t46.5 -1h627zM924 150v1159q-75 10 -156 10q-123 0 -216.5 -44t-150.5 -124t-85.5 -186
t-28.5 -236t28.5 -236t85.5 -186t150.5 -124t216.5 -44q74 0 156 11z" />
    <glyph glyph-name="oe" unicode="&#x153;" horiz-adv-x="1970" 
d="M1098 694h606q0 111 -31.5 199.5t-99 143.5t-160.5 55q-138 0 -217 -103.5t-98 -294.5zM588 1092q-74 0 -131.5 -28.5t-92.5 -74.5t-58 -110.5t-31.5 -130t-8.5 -140.5q0 -76 8.5 -142.5t31 -132t58 -111.5t93 -74.5t131.5 -28.5t131.5 28.5t92.5 74.5t57.5 111.5t31 132
t8.5 142.5q0 75 -8.5 140.5t-31 130t-57.5 110.5t-92.5 74.5t-131.5 28.5zM1710 332l158 -56q-60 -143 -173.5 -222t-275.5 -79q-32 0 -58.5 2.5t-67.5 9.5t-77 24.5t-75 44t-73.5 71t-61.5 102.5q-39 -60 -74 -100.5t-84.5 -78.5t-114 -56.5t-145.5 -18.5
q-89 0 -163.5 22.5t-126 59.5t-91.5 89.5t-64 107.5t-39 119.5t-20.5 120t-5.5 112.5q0 96 17 185t56 170.5t97 141.5t145 96t195 36q294 0 422 -256q135 250 409 256q101 0 182.5 -34t134.5 -90t89 -133t51.5 -158.5t15.5 -170.5v-90h-794q6 -228 96 -334t225 -106
q56 0 104 16t78.5 39.5t54.5 54t36 55.5t18 48z" />
    <glyph glyph-name="Scaron" unicode="&#x160;" 
d="M70 279l182 67q9 -33 23 -63t39 -60t57.5 -52t80 -36t103.5 -14q130 0 206.5 77t76.5 177q0 45 -11.5 82.5t-26.5 60t-40 42.5t-39 27.5t-37 18.5l-352 164q-217 100 -217 320q0 82 27.5 150.5t72.5 113.5t105 76t123 45t128 14q352 0 447 -266l-184 -62q-16 65 -61 106
t-94.5 55.5t-107.5 14.5q-129 0 -192.5 -64.5t-63.5 -170.5q0 -41 12 -75t28 -55.5t45.5 -42t50.5 -31t57 -26.5l262 -114q36 -16 63.5 -30.5t69 -47t68.5 -70.5t47 -98.5t20 -132.5q0 -47 -11.5 -96t-45 -107t-86.5 -102.5t-145 -74.5t-211 -30q-91 0 -168 22t-126.5 55
t-87.5 77t-57 81.5t-30 74.5zM473 1550l-223 293h172l147 -203l148 203h172l-223 -293h-193z" />
    <glyph glyph-name="scaron" unicode="&#x161;" horiz-adv-x="985" 
d="M49 281l160 51q36 -103 101 -158t173 -55q68 0 119.5 20t78.5 52t39.5 65t12.5 66q0 45 -15.5 78.5t-50.5 58t-75 41.5t-103 37l-90 28q-68 21 -118.5 46t-96.5 63.5t-70 95t-24 129.5q0 88 38.5 155.5t100.5 105.5t130.5 56.5t138.5 18.5q57 0 106 -11t83.5 -25.5
t65.5 -41t49 -46.5t36.5 -53.5t26 -50t20.5 -46.5l-158 -56q-24 92 -88 139.5t-147 47.5q-94 0 -158 -47t-64 -136q0 -68 37.5 -106t138.5 -74l166 -57q158 -55 229.5 -131.5t71.5 -210.5q0 -44 -11.5 -89t-42.5 -94t-78 -86t-125 -61.5t-177 -24.5q-158 0 -275.5 79
t-154.5 227zM397 1360l-223 293h172l148 -203l147 203h172l-223 -293h-193z" />
    <glyph glyph-name="Ydieresis" unicode="&#x178;" horiz-adv-x="1249" 
d="M530 0v596l-516 862h226l327 -571q23 -40 60 -123h4q34 77 61 123l330 571h213l-516 -862v-596h-189zM324 1602v180h200v-180h-200zM725 1602v180h201v-180h-201z" />
    <glyph glyph-name="Zcaron" unicode="&#x17d;" horiz-adv-x="1062" 
d="M68 1458h931v-158l-745 -1148h762v-152h-969v172l748 1135h-727v151zM436 1550l-223 293h172l147 -203l148 203h172l-223 -293h-193z" />
    <glyph glyph-name="zcaron" unicode="&#x17e;" horiz-adv-x="985" 
d="M74 1210h850v-139l-662 -928h676v-143h-891v137l668 930h-641v143zM397 1360l-223 293h172l148 -203l147 203h172l-223 -293h-193z" />
    <glyph glyph-name="florin" unicode="&#x192;" 
d="M1104 1436l-82 -125q-40 21 -63 28t-58 7q-59 0 -96.5 -40t-52.5 -104l-80 -328h219v-122h-248l-158 -656q-11 -45 -18.5 -73.5t-23 -72t-31.5 -71t-43 -59.5t-58 -50.5t-76 -31t-98 -12.5q-96 0 -176 51l74 121q26 -29 102 -29q73 0 107.5 47t58.5 150l160 686h-217v122
h246l73 314q70 301 334 301q113 0 205 -53z" />
    <glyph glyph-name="circumflex" unicode="&#x2c6;" horiz-adv-x="495" 
d="M-72 1360l224 293h192l223 -293h-172l-147 203l-148 -203h-172z" />
    <glyph glyph-name="caron" unicode="&#x2c7;" horiz-adv-x="495" 
d="M152 1360l-224 293h172l148 -203l147 203h172l-223 -293h-192z" />
    <glyph glyph-name="uni02C9" unicode="&#x2c9;" horiz-adv-x="495" 
d="M-39 1554h574v-122h-574v122z" />
    <glyph glyph-name="breve" unicode="&#x2d8;" horiz-adv-x="495" 
d="M-63 1647h96q8 -36 20.5 -63.5t35.5 -54t63.5 -40.5t95.5 -14t95.5 14t63.5 40.5t35.5 54t20.5 63.5h96q-3 -126 -83 -206.5t-228 -80.5t-228 80.5t-83 206.5z" />
    <glyph glyph-name="dotaccent" unicode="&#x2d9;" horiz-adv-x="495" 
d="M147 1411v180h201v-180h-201z" />
    <glyph glyph-name="ring" unicode="&#x2da;" horiz-adv-x="495" 
d="M51 1522q0 82 57 139t140 57q82 0 139 -57t57 -139t-57 -139.5t-139 -57.5q-83 0 -140 57.5t-57 139.5zM135 1522q0 -46 33 -79.5t80 -33.5q46 0 79 33.5t33 79.5t-33 79t-79 33q-47 0 -80 -33t-33 -79z" />
    <glyph glyph-name="ogonek" unicode="&#x2db;" horiz-adv-x="495" 
d="M575 -289v-96q-97 -55 -198 -55q-90 0 -145.5 48t-55.5 132q0 44 32.5 95t82.5 91l102 86h113q-104 -83 -145.5 -137.5t-41.5 -99.5t32 -75t85 -30q82 0 139 41z" />
    <glyph glyph-name="tilde" unicode="&#x2dc;" horiz-adv-x="495" 
d="M2 1380h-94q17 116 73 166.5t119 50.5q58 0 150 -43t145 -43q36 0 59 21t40 74h94q-17 -116 -73.5 -166.5t-119.5 -50.5q-11 0 -21.5 1t-22.5 4t-20 5.5t-22 7.5t-20 7.5t-22.5 9t-20.5 8.5q-5 2 -24 10t-25.5 10.5t-22.5 8t-26 8t-23 4.5t-25 2q-36 0 -58.5 -21
t-39.5 -74z" />
    <glyph glyph-name="hungarumlaut" unicode="&#x2dd;" horiz-adv-x="495" 
d="M-90 1360l213 293h221l-291 -293h-143zM258 1360l213 293h221l-291 -293h-143z" />
    <glyph glyph-name="uni03A9" unicode="&#x3a9;" horiz-adv-x="1470" 
d="M403 135v6q-120 109 -198 275t-78 370q0 201 80 360t220.5 247t313.5 88q134 0 248.5 -56.5t190.5 -151.5t118.5 -218.5t42.5 -257.5q0 -210 -81.5 -383t-196.5 -273v-6h305v-135h-494v98q128 87 216 260.5t88 405.5q-1 83 -18.5 164.5t-54 156.5t-87.5 132.5t-123 91.5
t-156 34q-134 0 -237 -78t-157 -210t-54 -295q0 -221 89 -401t214 -261v-98h-496v135h305z" />
    <glyph glyph-name="uni03BC" unicode="&#x3bc;" horiz-adv-x="1175" 
d="M143 -385v1595h181v-825q0 -66 18 -115.5t43 -76t61 -42.5t64 -20t59 -4q47 0 90 17t72 41t55 57.5t40 59.5t26 54v854h180v-1210h-180v174h-4q-50 -97 -116 -148t-159 -51q-102 0 -157 34.5t-88 90.5h-4v-485h-181z" />
    <glyph glyph-name="pi" unicode="&#x3c0;" horiz-adv-x="1175" 
d="M1120 946h-164v-641q0 -191 29 -305h-156q-34 60 -34 293v653h-365q-10 -224 -53 -514.5t-96 -431.5h-158q56 163 97.5 444.5t47.5 501.5q-155 0 -225 -26l-25 108q88 57 297 57h820z" />
    <glyph glyph-name="endash" unicode="&#x2013;" horiz-adv-x="1024" 
d="M0 674h1024v-135h-1024v135z" />
    <glyph glyph-name="emdash" unicode="&#x2014;" horiz-adv-x="2048" 
d="M0 674h2048v-135h-2048v135z" />
    <glyph glyph-name="quoteleft" unicode="&#x2018;" horiz-adv-x="569" 
d="M121 1104l172 487h156l-127 -487h-201z" />
    <glyph glyph-name="quoteright" unicode="&#x2019;" horiz-adv-x="569" 
d="M121 1104l127 487h201l-173 -487h-155z" />
    <glyph glyph-name="quotesinglbase" unicode="&#x201a;" horiz-adv-x="569" 
d="M121 -274l127 487h201l-173 -487h-155z" />
    <glyph glyph-name="quotedblleft" unicode="&#x201c;" horiz-adv-x="909" 
d="M479 1104l172 487h156l-127 -487h-201zM102 1104l172 487h156l-127 -487h-201z" />
    <glyph glyph-name="quotedblright" unicode="&#x201d;" horiz-adv-x="909" 
d="M102 1104l127 487h201l-172 -487h-156zM479 1104l127 487h201l-172 -487h-156z" />
    <glyph glyph-name="quotedblbase" unicode="&#x201e;" horiz-adv-x="909" 
d="M102 -274l127 487h201l-172 -487h-156zM479 -274l127 487h201l-172 -487h-156z" />
    <glyph glyph-name="dagger" unicode="&#x2020;" 
d="M479 1458h180v-416h398v-151h-398v-1145h-180v1145h-397v151h397v416z" />
    <glyph glyph-name="daggerdbl" unicode="&#x2021;" 
d="M479 -254v389h-381v152h381v631h-381v151h381v389h180v-389h381v-151h-381v-631h381v-152h-381v-389h-180z" />
    <glyph glyph-name="bullet" unicode="&#x2022;" horiz-adv-x="1024" 
d="M147 729q0 151 107 258t258 107t258 -107t107 -258t-107 -257.5t-258 -106.5t-258 106.5t-107 257.5z" />
    <glyph glyph-name="ellipsis" unicode="&#x2026;" horiz-adv-x="2048" 
d="M242 213h200v-213h-200v213zM924 213h200v-213h-200v213zM1606 213h200v-213h-200v213z" />
    <glyph glyph-name="perthousand" unicode="&#x2030;" horiz-adv-x="2199" 
d="M1833 -25q-157 0 -238.5 112.5t-81.5 283.5t81.5 283t238.5 112t238 -112t81 -283t-81 -283.5t-238 -112.5zM1833 98q84 0 130 80.5t46 192.5t-46 192t-130 80t-130 -80t-46 -192t46 -192.5t130 -80.5zM1102 -25q-157 0 -238.5 112.5t-81.5 283.5t81.5 283t238.5 112
t238 -112t81 -283t-81 -283.5t-238 -112.5zM1102 98q84 0 130 80.5t46 192.5t-46 192t-130 80t-130 -80t-46 -192t46 -192.5t130 -80.5zM367 698q-157 0 -238.5 112.5t-81.5 283.5t81.5 283t238.5 112t238 -112t81 -283t-81 -283.5t-238 -112.5zM367 821q84 0 130 80.5
t46 192.5t-46 192t-130 80t-130.5 -80.5t-46.5 -191.5q0 -112 46.5 -192.5t130.5 -80.5zM1073 1513h123l-803 -1562h-123z" />
    <glyph glyph-name="guilsinglleft" unicode="&#x2039;" horiz-adv-x="569" 
d="M385 145l-315 461l315 461l115 -74l-250 -387l250 -387z" />
    <glyph glyph-name="guilsinglright" unicode="&#x203a;" horiz-adv-x="569" 
d="M70 219l249 387l-249 387l114 74l316 -461l-316 -461z" />
    <glyph glyph-name="fraction" unicode="&#x2044;" horiz-adv-x="342" 
d="M512 1513h123l-803 -1562h-123z" />
    <glyph glyph-name="Euro" unicode="&#x20ac;" 
d="M80 676q-6 94 6 201h-135l49 112h104q23 119 78 212t117 145q158 143 416 143q105 0 208.5 -25.5t182.5 -70.5l-72 -156q-75 51 -166.5 75.5t-156.5 24.5q-87 -3 -157 -31.5t-108.5 -61t-71 -88t-41 -80.5t-21.5 -71q-4 -11 -5 -16h613l-52 -112h-581q-8 -96 -8 -201h497
l-51 -113h-436q9 -86 41 -173.5t90 -149.5q64 -66 140 -92.5t173 -26.5q70 0 123.5 12.5t120.5 40.5q88 43 131 74v-178q-7 -3 -32.5 -16t-50.5 -23.5t-50 -18.5q-121 -41 -262 -41q-162 0 -278 55.5t-185 143.5q-81 99 -121.5 221.5t-40.5 171.5h-137l49 113h80z" />
    <glyph glyph-name="afii61289" unicode="&#x2113;" horiz-adv-x="999" 
d="M877 315l75 -69q-137 -260 -385 -260q-86 0 -152 30.5t-105.5 84.5t-60.5 121t-24 147v28q-19 -15 -116 -98l-50 94q15 13 42.5 36.5t44 37.5t38.5 34t39 38v567q0 136 27 237t74 157t101.5 82t117.5 26q125 0 190.5 -95t65.5 -245q0 -185 -109 -372.5t-313 -389.5l2 -72
q0 -160 62.5 -239.5t158.5 -79.5q87 0 160 59t117 141zM377 1116v-448q147 163 229 310.5t82 289.5q0 219 -143 219q-67 0 -117.5 -90t-50.5 -281z" />
    <glyph glyph-name="trademark" unicode="&#x2122;" horiz-adv-x="2048" 
d="M408 614v734h-267v110h668v-110h-266v-734h-135zM983 614v844h213l252 -641l248 641h211v-844h-135v709h-5l-278 -709h-88l-279 709h-4v-709h-135z" />
    <glyph glyph-name="Omega" unicode="&#x2126;" horiz-adv-x="1470" 
d="M403 135v6q-120 109 -198 275t-78 370q0 201 80 360t220.5 247t313.5 88q134 0 248.5 -56.5t190.5 -151.5t118.5 -218.5t42.5 -257.5q0 -210 -81.5 -383t-196.5 -273v-6h305v-135h-494v98q128 87 216 260.5t88 405.5q-1 83 -18.5 164.5t-54 156.5t-87.5 132.5t-123 91.5
t-156 34q-134 0 -237 -78t-157 -210t-54 -295q0 -221 89 -401t214 -261v-98h-496v135h305z" />
    <glyph glyph-name="estimated" unicode="&#x212e;" horiz-adv-x="1824" 
d="M1751 711h-1360q-12 0 -12 -9v-411q0 -25 18 -47q103 -106 235.5 -166t280.5 -60q160 0 300.5 67t240.5 185h121q-114 -136 -289.5 -214.5t-376.5 -78.5q-171 0 -326 60t-267.5 161t-179 240.5t-66.5 292.5q0 154 66.5 294.5t179 242t267.5 161.5t326 60q172 0 328 -60
t268.5 -161.5t179 -242t66.5 -294.5v-20zM1444 764v416q0 24 -21 49q-104 100 -234.5 157.5t-275.5 57.5q-147 0 -279 -59t-235 -164q-20 -20 -20 -52v-405q0 -3 4 -7.5t8 -4.5h1043q10 0 10 12z" />
    <glyph glyph-name="partialdiff" unicode="&#x2202;" horiz-adv-x="1126" 
d="M209 1403l-53 119q144 116 344 116q82 0 157 -30t141.5 -93.5t115.5 -155t77.5 -223t28.5 -288.5q0 -251 -60 -443.5t-182.5 -305.5t-294.5 -113q-97 0 -174.5 41t-125 110t-72.5 153.5t-25 176.5q0 120 36 221.5t96.5 169t139.5 105.5t166 38q65 0 124.5 -21
t100.5 -53.5t67.5 -62.5t41.5 -57h2q2 25 2 88q0 266 -110 436t-271 170q-153 0 -272 -98zM498 121h2q93 0 167.5 76t117.5 193t57 257q-12 36 -36.5 73t-60.5 71t-87 55.5t-107 21.5q-82 0 -152 -54t-110.5 -146.5t-40.5 -200.5q0 -152 68.5 -249t181.5 -97z" />
    <glyph glyph-name="Delta" unicode="&#x2206;" horiz-adv-x="1327" 
d="M63 0v109l510 1388h189l502 -1386v-111h-1201zM227 133h863l-291 787q-15 48 -67 190.5t-66 194.5h-9q-11 -41 -57.5 -171.5t-62.5 -183.5z" />
    <glyph glyph-name="product" unicode="&#x220f;" horiz-adv-x="1437" 
d="M1382 1309h-223v-1510h-160v1510h-565v-1510h-158v1510h-223v149h1329v-149z" />
    <glyph glyph-name="summation" unicode="&#x2211;" horiz-adv-x="1134" 
d="M1090 -201h-1043v109l547 719l-522 716v115h985v-141h-764v-6l487 -660l-528 -692v-6h838v-154z" />
    <glyph glyph-name="minus" unicode="&#x2212;" horiz-adv-x="1228" 
d="M1130 451h-1032v135h1032v-135z" />
    <glyph glyph-name="uni2215" unicode="&#x2215;" horiz-adv-x="342" 
d="M512 1513h123l-803 -1562h-123z" />
    <glyph glyph-name="uni2219" unicode="&#x2219;" horiz-adv-x="569" 
d="M147 639q0 57 40.5 97t97.5 40t97 -40t40 -97t-40 -97t-97 -40t-97.5 40t-40.5 97z" />
    <glyph glyph-name="radical" unicode="&#x221a;" horiz-adv-x="1177" 
d="M1178 1735l-455 -2046h-141l-328 966l-152 -59l-32 98l286 113l256 -766q24 -88 37 -154l2 -2q1 10 29 156l379 1694h119z" />
    <glyph glyph-name="infinity" unicode="&#x221e;" horiz-adv-x="1603" 
d="M1497 606v-2q0 -147 -93.5 -238.5t-221.5 -91.5q-94 0 -180 57.5t-199 186.5q-50 -58 -85 -93t-85.5 -74.5t-104.5 -58t-114 -18.5q-127 0 -218.5 93.5t-91.5 228.5q0 142 92 236t232 94q74 0 145.5 -36.5t123 -85t114.5 -124.5q96 108 141 147q117 99 244 99
q134 0 217.5 -89t83.5 -231zM428 375h2q27 0 53 6t53.5 22.5t45.5 27.5t47 39.5t40 39t42.5 44.5t36.5 40q-89 110 -132 148q-97 87 -200 87q-95 0 -150 -68.5t-55 -166.5q0 -92 61 -155.5t156 -63.5zM1186 829h-4q-39 0 -77.5 -15t-74.5 -44.5t-61 -54t-58.5 -61.5
t-46.5 -50q75 -86 121 -130t97.5 -71.5t105.5 -27.5q93 0 149 67.5t56 155.5q0 105 -58 168t-149 63z" />
    <glyph glyph-name="integral" unicode="&#x222b;" horiz-adv-x="743" 
d="M707 1755l-25 -113q-38 21 -76 21q-64 0 -104 -51q-37 -45 -52.5 -132t-15.5 -239q0 -162 13.5 -517.5t13.5 -528.5q0 -287 -86 -422q-34 -55 -89.5 -83t-119.5 -28q-38 0 -77 11t-60 24l28 117q52 -23 93 -23q61 0 94 47q69 89 69 357q0 175 -13 536t-13 526
q0 175 25 278.5t85 166.5q76 82 197 82q30 0 63 -9.5t50 -19.5z" />
    <glyph glyph-name="approxequal" unicode="&#x2248;" horiz-adv-x="1155" 
d="M993 899l66 -57q-99 -199 -264 -199q-40 0 -81 12.5t-69 26.5t-92 49q-40 23 -63.5 35.5t-59 23.5t-68.5 11q-64 0 -109.5 -40t-92.5 -114l-68 55q47 92 121.5 145.5t163.5 53.5q28 0 54.5 -4.5t55.5 -17t41.5 -18.5t44 -24.5t33.5 -19.5q9 -5 29 -16t28.5 -15.5
t25.5 -13t27.5 -12t25 -8t28.5 -6t29 -1.5q60 0 104 37.5t90 116.5zM993 545l66 -58q-99 -196 -264 -196q-58 0 -107.5 19t-134.5 67q-43 25 -64.5 36.5t-57.5 23.5t-69 12q-45 0 -84.5 -24.5t-63 -53.5t-54.5 -78l-68 57q47 92 121.5 145.5t163.5 53.5q28 0 55 -5t53.5 -16
t42.5 -19t43 -24t35 -20q9 -5 37.5 -21t40 -21.5t34 -15t42 -13t41.5 -3.5q60 0 103 37.5t89 116.5z" />
    <glyph glyph-name="notequal" unicode="&#x2260;" horiz-adv-x="1155" 
d="M821 1049l-92 -201h320v-105h-361l-137 -301h498v-104h-539l-111 -242l-82 37l95 205h-308v104h349l137 301h-486v105h527l108 237z" />
    <glyph glyph-name="lessequal" unicode="&#x2264;" horiz-adv-x="1155" 
d="M1044 203l-927 467v110l925 465v-125l-815 -391v-6l817 -395v-125zM1049 12h-945v107h945v-107z" />
    <glyph glyph-name="greaterequal" unicode="&#x2265;" horiz-adv-x="1155" 
d="M119 1245l925 -467v-108l-925 -467v125l815 395v4l-815 393v125zM1049 12h-943v107h943v-107z" />
    <glyph glyph-name="lozenge" unicode="&#x25ca;" horiz-adv-x="1179" 
d="M1067 729l-416 -823h-131l-407 823l413 821h131zM920 725l-289 575q-31 72 -39 113h-6q-19 -63 -41 -113l-287 -569l291 -581q26 -59 37 -109h8q11 51 35 106z" />
    </font>
</defs>
</svg>
